  0
SECTION
  2
HEADER
  9
$ACADVER
  1
AC1015
  9
$ACADMAINTVER
 70
    20
  9
$DWGCODEPAGE
  3
ANSI_936
  9
$INSBASE
 10
0.0
 20
0.0
 30
0.0
  9
$EXTMIN
 10
1357.492455374701
 20
79.76348287504595
 30
0.0
  9
$EXTMAX
 10
1576.537370467159
 20
217.009869225662
 30
0.0
  9
$LIMMIN
 10
0.0
 20
0.0
  9
$LIMMAX
 10
12.0
 20
9.0
  9
$ORTHOMODE
 70
     0
  9
$REGENMODE
 70
     1
  9
$FILLMODE
 70
     1
  9
$QTEXTMODE
 70
     0
  9
$MIRRTEXT
 70
     0
  9
$LTSCALE
 40
1.0
  9
$ATTMODE
 70
     1
  9
$TEXTSIZE
 40
0.2
  9
$TRACEWID
 40
0.05
  9
$TEXTSTYLE
  7
STANDARD
  9
$CLAYER
  8
标注线
  9
$CELTYPE
  6
ByLayer
  9
$CECOLOR
 62
   256
  9
$CELTSCALE
 40
1.0
  9
$DISPSILH
 70
     0
  9
$DIMSCALE
 40
1.0
  9
$DIMASZ
 40
0.65
  9
$DIMEXO
 40
0.88
  9
$DIMDLI
 40
0.015
  9
$DIMRND
 40
0.0
  9
$DIMDLE
 40
0.0
  9
$DIMEXE
 40
0.32
  9
$DIMTP
 40
0.0
  9
$DIMTM
 40
0.0
  9
$DIMTXT
 40
0.65
  9
$DIMCEN
 40
0.09
  9
$DIMTSZ
 40
0.0
  9
$DIMTOL
 70
     0
  9
$DIMLIM
 70
     0
  9
$DIMTIH
 70
     0
  9
$DIMTOH
 70
     0
  9
$DIMSE1
 70
     0
  9
$DIMSE2
 70
     0
  9
$DIMTAD
 70
     0
  9
$DIMZIN
 70
     8
  9
$DIMBLK
  1

  9
$DIMASO
 70
     1
  9
$DIMSHO
 70
     1
  9
$DIMPOST
  1
"
  9
$DIMAPOST
  1
"
  9
$DIMALT
 70
     0
  9
$DIMALTD
 70
     1
  9
$DIMALTF
 40
0.03937
  9
$DIMLFAC
 40
1.0
  9
$DIMTOFL
 70
     1
  9
$DIMTVP
 40
0.0
  9
$DIMTIX
 70
     0
  9
$DIMSOXD
 70
     0
  9
$DIMSAH
 70
     0
  9
$DIMBLK1
  1

  9
$DIMBLK2
  1

  9
$DIMSTYLE
  2
副本STANDARD
  9
$DIMCLRD
 70
   256
  9
$DIMCLRE
 70
   256
  9
$DIMCLRT
 70
   256
  9
$DIMTFAC
 40
1.0
  9
$DIMGAP
 40
0.3
  9
$DIMJUST
 70
     0
  9
$DIMSD1
 70
     0
  9
$DIMSD2
 70
     0
  9
$DIMTOLJ
 70
     1
  9
$DIMTZIN
 70
     8
  9
$DIMALTZ
 70
     8
  9
$DIMALTTZ
 70
     8
  9
$DIMUPT
 70
     0
  9
$DIMDEC
 70
     3
  9
$DIMTDEC
 70
     3
  9
$DIMALTU
 70
     2
  9
$DIMALTTD
 70
     1
  9
$DIMTXSTY
  7
STANDARD
  9
$DIMAUNIT
 70
     0
  9
$DIMADEC
 70
     0
  9
$DIMALTRND
 40
0.0
  9
$DIMAZIN
 70
     0
  9
$DIMDSEP
 70
    46
  9
$DIMATFIT
 70
     3
  9
$DIMFRAC
 70
     2
  9
$DIMLDRBLK
  1

  9
$DIMLUNIT
 70
     5
  9
$DIMLWD
 70
    -2
  9
$DIMLWE
 70
    -2
  9
$DIMTMOVE
 70
     2
  9
$LUNITS
 70
     2
  9
$LUPREC
 70
     4
  9
$SKETCHINC
 40
0.1
  9
$FILLETRAD
 40
0.0
  9
$AUNITS
 70
     0
  9
$AUPREC
 70
     0
  9
$MENU
  1
.
  9
$ELEVATION
 40
0.0
  9
$PELEVATION
 40
0.0
  9
$THICKNESS
 40
0.0
  9
$LIMCHECK
 70
     0
  9
$CHAMFERA
 40
0.0
  9
$CHAMFERB
 40
0.0
  9
$CHAMFERC
 40
0.0
  9
$CHAMFERD
 40
0.0
  9
$SKPOLY
 70
     0
  9
$TDCREATE
 40
2455434.724808658
  9
$TDUCREATE
 40
2455434.391475324
  9
$TDUPDATE
 40
2458650.367029723
  9
$TDUUPDATE
 40
2458650.033696389
  9
$TDINDWG
 40
0.7724348495
  9
$TDUSRTIMER
 40
0.7724169676
  9
$USRTIMER
 70
     1
  9
$ANGBASE
 50
0.0
  9
$ANGDIR
 70
     0
  9
$PDMODE
 70
     0
  9
$PDSIZE
 40
0.0
  9
$PLINEWID
 40
0.0
  9
$SPLFRAME
 70
     0
  9
$SPLINETYPE
 70
     6
  9
$SPLINESEGS
 70
     8
  9
$HANDSEED
  5
8ED2
  9
$SURFTAB1
 70
     6
  9
$SURFTAB2
 70
     6
  9
$SURFTYPE
 70
     6
  9
$SURFU
 70
     6
  9
$SURFV
 70
     6
  9
$UCSBASE
  2

  9
$UCSNAME
  2

  9
$UCSORG
 10
0.0
 20
0.0
 30
0.0
  9
$UCSXDIR
 10
1.0
 20
0.0
 30
0.0
  9
$UCSYDIR
 10
0.0
 20
1.0
 30
0.0
  9
$UCSORTHOREF
  2

  9
$UCSORTHOVIEW
 70
     0
  9
$UCSORGTOP
 10
0.0
 20
0.0
 30
0.0
  9
$UCSORGBOTTOM
 10
0.0
 20
0.0
 30
0.0
  9
$UCSORGLEFT
 10
0.0
 20
0.0
 30
0.0
  9
$UCSORGRIGHT
 10
0.0
 20
0.0
 30
0.0
  9
$UCSORGFRONT
 10
0.0
 20
0.0
 30
0.0
  9
$UCSORGBACK
 10
0.0
 20
0.0
 30
0.0
  9
$PUCSBASE
  2

  9
$PUCSNAME
  2

  9
$PUCSORG
 10
0.0
 20
0.0
 30
0.0
  9
$PUCSXDIR
 10
1.0
 20
0.0
 30
0.0
  9
$PUCSYDIR
 10
0.0
 20
1.0
 30
0.0
  9
$PUCSORTHOREF
  2

  9
$PUCSORTHOVIEW
 70
     0
  9
$PUCSORGTOP
 10
0.0
 20
0.0
 30
0.0
  9
$PUCSORGBOTTOM
 10
0.0
 20
0.0
 30
0.0
  9
$PUCSORGLEFT
 10
0.0
 20
0.0
 30
0.0
  9
$PUCSORGRIGHT
 10
0.0
 20
0.0
 30
0.0
  9
$PUCSORGFRONT
 10
0.0
 20
0.0
 30
0.0
  9
$PUCSORGBACK
 10
0.0
 20
0.0
 30
0.0
  9
$USERI1
 70
     0
  9
$USERI2
 70
     0
  9
$USERI3
 70
     0
  9
$USERI4
 70
     0
  9
$USERI5
 70
     0
  9
$USERR1
 40
0.0
  9
$USERR2
 40
0.0
  9
$USERR3
 40
0.0
  9
$USERR4
 40
0.0
  9
$USERR5
 40
2.5
  9
$WORLDVIEW
 70
     1
  9
$SHADEDGE
 70
     3
  9
$SHADEDIF
 70
    70
  9
$TILEMODE
 70
     1
  9
$MAXACTVP
 70
    64
  9
$PINSBASE
 10
0.0
 20
0.0
 30
0.0
  9
$PLIMCHECK
 70
     0
  9
$PEXTMIN
 10
1.000000000000000E+20
 20
1.000000000000000E+20
 30
1.000000000000000E+20
  9
$PEXTMAX
 10
-1.000000000000000E+20
 20
-1.000000000000000E+20
 30
-1.000000000000000E+20
  9
$PLIMMIN
 10
0.0
 20
0.0
  9
$PLIMMAX
 10
12.0
 20
9.0
  9
$UNITMODE
 70
     0
  9
$VISRETAIN
 70
     1
  9
$PLINEGEN
 70
     0
  9
$PSLTSCALE
 70
     1
  9
$TREEDEPTH
 70
  3020
  9
$CMLSTYLE
  2
Standard
  9
$CMLJUST
 70
     0
  9
$CMLSCALE
 40
1.0
  9
$PROXYGRAPHICS
 70
     1
  9
$MEASUREMENT
 70
     0
  9
$CELWEIGHT
370
    -1
  9
$ENDCAPS
280
     0
  9
$JOINSTYLE
280
     0
  9
$LWDISPLAY
290
     0
  9
$INSUNITS
 70
     0
  9
$HYPERLINKBASE
  1

  9
$STYLESHEET
  1

  9
$XEDIT
290
     1
  9
$CEPSNTYPE
380
     0
  9
$PSTYLEMODE
290
     1
  9
$FINGERPRINTGUID
  2
{7BAC09DB-C4D0-41DB-8C07-4C6808ADD930}
  9
$VERSIONGUID
  2
{68B972C6-2D8D-4ED2-8C13-992BBE3D7DB6}
  9
$EXTNAMES
290
     1
  9
$PSVPSCALE
 40
0.0
  9
$OLESTARTUP
290
     0
  0
ENDSEC
  0
SECTION
  2
CLASSES
  0
CLASS
  1
ACDBDICTIONARYWDFLT
  2
AcDbDictionaryWithDefault
  3
ObjectDBX Classes
 90
        0
280
     0
281
     0
  0
CLASS
  1
MATERIAL
  2
AcDbMaterial
  3
ObjectDBX Classes
 90
     1153
280
     0
281
     0
  0
CLASS
  1
VISUALSTYLE
  2
AcDbVisualStyle
  3
ObjectDBX Classes
 90
     4095
280
     0
281
     0
  0
CLASS
  1
SCALE
  2
AcDbScale
  3
ObjectDBX Classes
 90
     1153
280
     0
281
     0
  0
CLASS
  1
TABLESTYLE
  2
AcDbTableStyle
  3
ObjectDBX Classes
 90
     4095
280
     0
281
     0
  0
CLASS
  1
MLEADERSTYLE
  2
AcDbMLeaderStyle
  3
ACDB_MLEADERSTYLE_CLASS
 90
     4095
280
     0
281
     0
  0
CLASS
  1
VLO-VL
  2
vlo_VL
  3
VL|AutoLISP based application
 90
      129
280
     0
281
     0
  0
CLASS
  1
DICTIONARYVAR
  2
AcDbDictionaryVar
  3
ObjectDBX Classes
 90
        0
280
     0
281
     0
  0
CLASS
  1
CELLSTYLEMAP
  2
AcDbCellStyleMap
  3
ObjectDBX Classes
 90
     1152
280
     0
281
     0
  0
CLASS
  1
DIMASSOC
  2
AcDbDimAssoc
  3
"AcDbDimAssoc|Product Desc:     AcDim ARX App For Dimension|Company:          Autodesk, Inc.|WEB Address:      www.autodesk.com"
 90
        0
280
     0
281
     0
  0
CLASS
  1
SORTENTSTABLE
  2
AcDbSortentsTable
  3
ObjectDBX Classes
 90
        0
280
     0
281
     0
  0
CLASS
  1
ACDBPLACEHOLDER
  2
AcDbPlaceHolder
  3
ObjectDBX Classes
 90
        0
280
     0
281
     0
  0
CLASS
  1
LAYOUT
  2
AcDbLayout
  3
ObjectDBX Classes
 90
        0
280
     0
281
     0
  0
ENDSEC
  0
SECTION
  2
TABLES
  0
TABLE
  2
VPORT
  5
5F02
330
0
100
AcDbSymbolTable
 70
     1
  0
VPORT
  5
5F73
330
5F02
100
AcDbSymbolTableRecord
100
AcDbViewportTableRecord
  2
*ACTIVE
 70
     0
 10
0.0
 20
0.0
 11
1.0
 21
1.0
 12
1471.333005848502
 22
146.7768218262071
 13
0.0
 23
0.0
 14
0.5
 24
0.5
 15
0.5
 25
0.5
 16
0.0
 26
0.0
 36
1.0
 17
0.0
 27
0.0
 37
0.0
 40
90.89758276666136
 41
1.622972972972972
 42
50.0
 43
0.0
 44
0.0
 50
0.0
 51
0.0
 71
     0
 72
  1000
 73
     1
 74
     3
 75
     0
 76
     0
 77
     0
 78
     0
281
     0
 65
     1
110
0.0
120
0.0
130
0.0
111
1.0
121
0.0
131
0.0
112
0.0
122
1.0
132
0.0
 79
     0
146
0.0
  0
ENDTAB
  0
TABLE
  2
LTYPE
  5
5EFF
330
0
100
AcDbSymbolTable
 70
     5
  0
LTYPE
  5
5F5C
330
5EFF
100
AcDbSymbolTableRecord
100
AcDbLinetypeTableRecord
  2
ByBlock
 70
     0
  3

 72
    65
 73
     0
 40
0.0
  0
LTYPE
  5
5F5D
330
5EFF
100
AcDbSymbolTableRecord
100
AcDbLinetypeTableRecord
  2
ByLayer
 70
     0
  3

 72
    65
 73
     0
 40
0.0
  0
LTYPE
  5
5F5E
330
5EFF
100
AcDbSymbolTableRecord
100
AcDbLinetypeTableRecord
  2
CONTINUOUS
 70
     0
  3
Solid line
 72
    65
 73
     0
 40
0.0
  0
LTYPE
  5
5F74
330
5EFF
100
AcDbSymbolTableRecord
100
AcDbLinetypeTableRecord
  2
CENTER2
 70
     0
  3
Center (.5x) ___ _ ___ _ ___ _ ___ _ ___ _ ___
 72
    65
 73
     4
 40
28.575
 49
19.05
 74
     0
 49
-3.174999999999998
 74
     0
 49
3.174999999999998
 74
     0
 49
-3.174999999999998
 74
     0
  0
LTYPE
  5
5F75
330
5EFF
100
AcDbSymbolTableRecord
100
AcDbLinetypeTableRecord
  2
HIDDEN2
 70
     0
  3
Hidden (.5x) _ _ _ _ _ _ _ _ _ _ _ _ _ _ _ _ _
 72
    65
 73
     2
 40
4.762499999999998
 49
3.174999999999998
 74
     0
 49
-1.587499999999999
 74
     0
  0
LTYPE
  5
88C9
330
5EFF
100
AcDbSymbolTableRecord
100
AcDbLinetypeTableRecord
  2
ACAD_ISO02W100
 70
     0
  3
ISO dash __ __ __ __ __ __ __ __ __ __ __ __ __
 72
    65
 73
     2
 40
15.0
 49
12.0
 74
     0
 49
-3.0
 74
     0
  0
ENDTAB
  0
TABLE
  2
LAYER
  5
5EFC
102
{ACAD_XDICTIONARY
360
61B7
102
}
330
0
100
AcDbSymbolTable
 70
     8
  0
LAYER
  5
5F56
102
{ACAD_XDICTIONARY
360
60F4
102
}
330
5EFC
100
AcDbSymbolTableRecord
100
AcDbLayerTableRecord
  2
0
 70
     0
 62
     7
  6
CONTINUOUS
370
    -3
390
5F09
  0
LAYER
  5
5F72
102
{ACAD_XDICTIONARY
360
60F6
102
}
330
5EFC
100
AcDbSymbolTableRecord
100
AcDbLayerTableRecord
  2
标注
 70
     0
 62
    80
  6
CONTINUOUS
370
    -3
390
5F09
  0
LAYER
  5
5F7D
102
{ACAD_XDICTIONARY
360
60F8
102
}
330
5EFC
100
AcDbSymbolTableRecord
100
AcDbLayerTableRecord
  2
中心线
 70
     0
 62
     1
  6
CENTER2
370
    -3
390
5F09
  0
LAYER
  5
5F7E
102
{ACAD_XDICTIONARY
360
60FA
102
}
330
5EFC
100
AcDbSymbolTableRecord
100
AcDbLayerTableRecord
  2
虚线
 70
     0
 62
     4
  6
HIDDEN2
370
    -3
390
5F09
  0
LAYER
  5
5F7F
330
5EFC
100
AcDbSymbolTableRecord
100
AcDbLayerTableRecord
  2
DEFPOINTS
 70
     0
 62
     7
  6
CONTINUOUS
290
     0
370
    -3
390
5F09
  0
LAYER
  5
5F80
102
{ACAD_XDICTIONARY
360
60FC
102
}
330
5EFC
100
AcDbSymbolTableRecord
100
AcDbLayerTableRecord
  2
细实线
 70
     0
 62
     7
  6
CONTINUOUS
370
    -3
390
5F09
  0
LAYER
  5
6B9C
102
{ACAD_XDICTIONARY
360
6B9D
102
}
330
5EFC
100
AcDbSymbolTableRecord
100
AcDbLayerTableRecord
  2
截面层
 70
     0
 62
     6
  6
CONTINUOUS
370
    13
390
5F09
  0
LAYER
  5
776F
330
5EFC
100
AcDbSymbolTableRecord
100
AcDbLayerTableRecord
  2
标注线
 70
     0
 62
     3
  6
CONTINUOUS
370
     9
390
5F09
  0
ENDTAB
  0
TABLE
  2
STYLE
  5
5EFD
330
0
100
AcDbSymbolTable
 70
     2
  0
STYLE
  5
5F57
330
5EFD
100
AcDbSymbolTableRecord
100
AcDbTextStyleTableRecord
  2
STANDARD
 70
     0
 40
0.0
 41
1.0
 50
0.0
 71
     0
 42
0.2
  3
arial.ttf
  4

1001
ACAD
1000
Arial
1071
       34
  0
STYLE
  5
7201
330
5EFD
100
AcDbSymbolTableRecord
100
AcDbTextStyleTableRecord
  2
Arial
 70
     0
 40
0.0
 41
1.0
 50
0.0
 71
     0
 42
0.2
  3
arial.ttf
  4

1001
ACAD
1000
Arial
1071
       34
  0
ENDTAB
  0
TABLE
  2
VIEW
  5
5F00
330
0
100
AcDbSymbolTable
 70
     0
  0
ENDTAB
  0
TABLE
  2
UCS
  5
5F01
330
0
100
AcDbSymbolTable
 70
     0
  0
ENDTAB
  0
TABLE
  2
APPID
  5
5F03
330
0
100
AcDbSymbolTable
 70
    28
  0
APPID
  5
5F58
330
5F03
100
AcDbSymbolTableRecord
100
AcDbRegAppTableRecord
  2
ACAD
 70
     0
  0
APPID
  5
5F5F
330
5F03
100
AcDbSymbolTableRecord
100
AcDbRegAppTableRecord
  2
ACADANNOTATIVE
 70
     0
  0
APPID
  5
5F69
330
5F03
100
AcDbSymbolTableRecord
100
AcDbRegAppTableRecord
  2
ACAD_MLEADERVER
 70
     0
  0
APPID
  5
5F84
330
5F03
100
AcDbSymbolTableRecord
100
AcDbRegAppTableRecord
  2
ACAECLAYERSTANDARD
 70
     0
  0
APPID
  5
5F85
330
5F03
100
AcDbSymbolTableRecord
100
AcDbRegAppTableRecord
  2
ACAD_DSTYLE_DIMEXT_LENGTH
 70
     0
  0
APPID
  5
5F86
330
5F03
100
AcDbSymbolTableRecord
100
AcDbRegAppTableRecord
  2
ACAD_DSTYLE_DIMEXT_ENABLED
 70
     0
  0
APPID
  5
5F87
330
5F03
100
AcDbSymbolTableRecord
100
AcDbRegAppTableRecord
  2
ACAD_DSTYLE_DIMJOGGED_JOGA
 70
     0
  0
APPID
  5
5F88
330
5F03
100
AcDbSymbolTableRecord
100
AcDbRegAppTableRecord
  2
ACAD_DSTYLE_DIMARC_LENGTH_
 70
     0
  0
APPID
  5
5F89
330
5F03
100
AcDbSymbolTableRecord
100
AcDbRegAppTableRecord
  2
ACAD_PSEXT
 70
     0
  0
APPID
  5
5F8A
330
5F03
100
AcDbSymbolTableRecord
100
AcDbRegAppTableRecord
  2
MCAD_NO_VIS
 70
     0
  0
APPID
  5
5F8B
330
5F03
100
AcDbSymbolTableRecord
100
AcDbRegAppTableRecord
  2
ACAD_TEMP_GRAPHIC
 70
     0
  0
APPID
  5
5F8C
330
5F03
100
AcDbSymbolTableRecord
100
AcDbRegAppTableRecord
  2
AD_DRAW
 70
     0
  0
APPID
  5
5F8D
330
5F03
100
AcDbSymbolTableRecord
100
AcDbRegAppTableRecord
  2
ACATTRIBSERVICES
 70
     0
  0
APPID
  5
5F8E
330
5F03
100
AcDbSymbolTableRecord
100
AcDbRegAppTableRecord
  2
DESIGNERASSEMBLIES
 70
     0
  0
APPID
  5
5F8F
330
5F03
100
AcDbSymbolTableRecord
100
AcDbRegAppTableRecord
  2
ACADM_DIM_EDIT
 70
     0
  0
APPID
  5
5F90
330
5F03
100
AcDbSymbolTableRecord
100
AcDbRegAppTableRecord
  2
AMDT_DM_ADJ
 70
     0
  0
APPID
  5
5F91
330
5F03
100
AcDbSymbolTableRecord
100
AcDbRegAppTableRecord
  2
ACAD_DSTYLE_DIMJAG
 70
     0
  0
APPID
  5
5F92
330
5F03
100
AcDbSymbolTableRecord
100
AcDbRegAppTableRecord
  2
ACAD_DSTYLE_DIMBREAK
 70
     0
  0
APPID
  5
5F93
330
5F03
100
AcDbSymbolTableRecord
100
AcDbRegAppTableRecord
  2
ACAD_DSTYLE_DIMTALN
 70
     0
  0
APPID
  5
5F94
330
5F03
100
AcDbSymbolTableRecord
100
AcDbRegAppTableRecord
  2
GENIUS_GENODEF_13
 70
     0
  0
APPID
  5
5F95
330
5F03
100
AcDbSymbolTableRecord
100
AcDbRegAppTableRecord
  2
GENIUS_GENOBJ-N-FIL_13
 70
     0
  0
APPID
  5
5F96
330
5F03
100
AcDbSymbolTableRecord
100
AcDbRegAppTableRecord
  2
ACAD_EXEMPT_FROM_CAD_STANDARDS
 70
     0
  0
APPID
  5
5F97
330
5F03
100
AcDbSymbolTableRecord
100
AcDbRegAppTableRecord
  2
ACAD_DSTYLE_DIM_LINETYPE
 70
     0
  0
APPID
  5
5F98
330
5F03
100
AcDbSymbolTableRecord
100
AcDbRegAppTableRecord
  2
ACAD_DSTYLE_DIM_EXT1_LINETYPE
 70
     0
  0
APPID
  5
5F99
330
5F03
100
AcDbSymbolTableRecord
100
AcDbRegAppTableRecord
  2
ACAD_DSTYLE_DIM_EXT2_LINETYPE
 70
     0
  0
APPID
  5
5F9A
330
5F03
100
AcDbSymbolTableRecord
100
AcDbRegAppTableRecord
  2
ACAD_DSTYLE_DIMRADIAL_EXTENSION
 70
     0
  0
APPID
  5
6488
330
5F03
100
AcDbSymbolTableRecord
100
AcDbRegAppTableRecord
  2
AcadAnnoPO
 70
     0
  0
APPID
  5
7772
330
5F03
100
AcDbSymbolTableRecord
100
AcDbRegAppTableRecord
  2
ACAD_DSTYLE_DIMJOGGED_JOGANGLE_SYMBOL
 70
     0
  0
ENDTAB
  0
TABLE
  2
DIMSTYLE
  5
5F04
330
0
100
AcDbSymbolTable
 70
     8
100
AcDbDimStyleTable
 71
     2
340
5F9B
340
5F59
  0
DIMSTYLE
105
5F59
330
5F04
100
AcDbSymbolTableRecord
100
AcDbDimStyleTableRecord
  2
STANDARD
 70
     0
 41
0.65
 73
     0
 74
     0
140
0.65
176
     3
177
     3
178
     3
271
     3
272
     3
276
     2
277
     5
279
     2
284
     8
285
     8
286
     8
340
5F57
371
    13
372
    13
1001
ACAD_DSTYLE_DIMJAG
1070
   388
1040
1.5
1001
ACAD_DSTYLE_DIMTALN
1070
   392
1070
     0
1001
ACAD_DSTYLE_DIM_LINETYPE
1070
   380
1005
5F5E
1001
ACAD_DSTYLE_DIM_EXT1_LINETYPE
1070
   381
1005
5F5E
1001
ACAD_DSTYLE_DIM_EXT2_LINETYPE
1070
   382
1005
5F5E
  0
DIMSTYLE
105
5F9B
102
{ACAD_REACTORS
330
8E4D
102
}
330
5F04
100
AcDbSymbolTableRecord
100
AcDbDimStyleTableRecord
  2
副本STANDARD
 70
     0
  3
"
  4
"
 41
0.65
 42
0.88
 43
0.015
 44
0.32
 73
     0
 74
     0
 78
     8
140
0.65
143
0.03937
147
0.3
171
     1
172
     1
176
   256
177
   256
178
   256
271
     3
272
     3
274
     1
276
     2
277
     5
279
     2
284
     8
285
     8
286
     8
340
5F57
1001
ACAD_DSTYLE_DIMJAG
1070
   388
1040
1.5
1001
ACAD_DSTYLE_DIMTALN
1070
   392
1070
     0
  0
DIMSTYLE
105
848C
102
{ACAD_REACTORS
330
8D44
330
8D42
330
8D73
330
8D72
330
8D3C
330
8E57
330
8E66
102
}
330
5F04
100
AcDbSymbolTableRecord
100
AcDbDimStyleTableRecord
  2
副本Standard$0
 70
     0
  4
"
 41
16.0
 42
20.0
 44
7.0
 73
     0
 74
     0
 78
     8
 79
     2
140
20.0
143
0.03937
147
5.0
171
     3
172
     1
176
   256
177
   256
178
   256
179
     1
271
     1
272
     1
273
     7
274
     3
278
    44
340
5F57
1001
ACAD_DSTYLE_DIMBREAK
1070
   391
1040
0.125
1001
ACAD_DSTYLE_DIMJAG
1070
   388
1040
1.5
  0
DIMSTYLE
105
8C54
330
5F04
100
AcDbSymbolTableRecord
100
AcDbDimStyleTableRecord
  2
XIAO
 70
     0
 41
3.5
 42
3.0
 43
1.0
 44
1.0
 73
     0
 74
     0
 78
     8
140
4.0
141
1.5
143
0.03937007874016
147
1.0
171
     3
172
     1
179
     1
271
     1
272
     1
274
     3
278
    44
283
     0
284
     8
340
5F57
  0
DIMSTYLE
105
8C55
330
5F04
100
AcDbSymbolTableRecord
100
AcDbDimStyleTableRecord
  2
中10+
 70
     0
  3
mm
  4
"
 41
12.0
 42
10.0
 43
1.0
 44
2.0
 73
     0
 74
     0
 78
     8
140
12.0
141
1.5
143
0.03937007874016
147
4.0
170
     1
171
     3
172
     1
179
     1
271
     1
272
     1
273
     7
274
     3
278
    44
283
     0
284
     8
340
5F57
  0
DIMSTYLE
105
8C56
330
5F04
100
AcDbSymbolTableRecord
100
AcDbDimStyleTableRecord
  2
英寸
 70
     0
  3
"
  4
"
 41
16.0
 42
22.0
 44
8.0
 73
     0
 74
     0
 78
     8
 79
     2
140
16.0
143
0.03937
144
0.03937007874
147
5.0
171
     3
172
     1
176
     3
177
     3
178
     3
179
     1
271
     3
272
     3
273
     7
274
     3
276
     2
277
     5
340
7201
371
    13
372
    13
1001
ACAD_DSTYLE_DIMBREAK
1070
   391
1040
0.125
1001
ACAD_DSTYLE_DIMJAG
1070
   388
1040
1.5
1001
ACAD_DSTYLE_DIMTALN
1070
   392
1070
     0
1001
ACAD_DSTYLE_DIMEXT_LENGTH
1070
   378
1040
8.0
1001
ACAD_DSTYLE_DIM_LINETYPE
1070
   380
1005
5F5E
1001
ACAD_DSTYLE_DIM_EXT1_LINETYPE
1070
   381
1005
5F5E
1001
ACAD_DSTYLE_DIM_EXT2_LINETYPE
1070
   382
1005
5F5E
  0
DIMSTYLE
105
8C57
102
{ACAD_REACTORS
330
8C60
330
8C66
330
8C68
330
8C95
330
8C96
330
8C97
102
}
330
5F04
100
AcDbSymbolTableRecord
100
AcDbDimStyleTableRecord
  2
中14+
 70
     0
  4
"
 41
14.0
 42
10.0
 43
1.0
 44
2.0
 73
     0
 74
     0
 78
     8
140
14.0
141
2.0
143
0.03937007874016
147
5.0
171
     3
172
     1
179
     1
271
     1
272
     1
273
     7
274
     3
278
    44
283
     0
284
     8
340
5F57
1001
ACAD_DSTYLE_DIMJAG
1070
   388
1040
1.5
1001
ACAD_DSTYLE_DIMBREAK
1070
   391
1040
0.2
1001
ACAD_DSTYLE_DIMTALN
1070
   392
1070
     0
  0
ENDTAB
  0
TABLE
  2
BLOCK_RECORD
  5
5EFB
330
0
100
AcDbSymbolTable
 70
    42
  0
BLOCK_RECORD
  5
5F6E
102
{ACAD_XDICTIONARY
360
654F
102
}
330
5EFB
100
AcDbSymbolTableRecord
100
AcDbBlockTableRecord
  2
*Model_Space
340
5F71
  0
BLOCK_RECORD
  5
5F6A
330
5EFB
100
AcDbSymbolTableRecord
100
AcDbBlockTableRecord
  2
*Paper_Space
340
5F6D
  0
BLOCK_RECORD
  5
860F
330
5EFB
100
AcDbSymbolTableRecord
100
AcDbBlockTableRecord
  2
*D0
340
0
  0
BLOCK_RECORD
  5
861D
330
5EFB
100
AcDbSymbolTableRecord
100
AcDbBlockTableRecord
  2
*D1
340
0
  0
BLOCK_RECORD
  5
862A
330
5EFB
100
AcDbSymbolTableRecord
100
AcDbBlockTableRecord
  2
*D2
340
0
  0
BLOCK_RECORD
  5
8637
330
5EFB
100
AcDbSymbolTableRecord
100
AcDbBlockTableRecord
  2
*D3
340
0
  0
BLOCK_RECORD
  5
8644
330
5EFB
100
AcDbSymbolTableRecord
100
AcDbBlockTableRecord
  2
*D4
340
0
  0
BLOCK_RECORD
  5
8651
330
5EFB
100
AcDbSymbolTableRecord
100
AcDbBlockTableRecord
  2
*D5
340
0
  0
BLOCK_RECORD
  5
865F
330
5EFB
100
AcDbSymbolTableRecord
100
AcDbBlockTableRecord
  2
*D6
340
0
  0
BLOCK_RECORD
  5
8677
330
5EFB
100
AcDbSymbolTableRecord
100
AcDbBlockTableRecord
  2
*D7
340
0
  0
BLOCK_RECORD
  5
8685
330
5EFB
100
AcDbSymbolTableRecord
100
AcDbBlockTableRecord
  2
*D8
340
0
  0
BLOCK_RECORD
  5
86BA
330
5EFB
100
AcDbSymbolTableRecord
100
AcDbBlockTableRecord
  2
*D9
340
0
  0
BLOCK_RECORD
  5
8968
330
5EFB
100
AcDbSymbolTableRecord
100
AcDbBlockTableRecord
  2
*D10
340
0
  0
BLOCK_RECORD
  5
8975
330
5EFB
100
AcDbSymbolTableRecord
100
AcDbBlockTableRecord
  2
*D11
340
0
  0
BLOCK_RECORD
  5
8982
330
5EFB
100
AcDbSymbolTableRecord
100
AcDbBlockTableRecord
  2
*D12
340
0
  0
BLOCK_RECORD
  5
898F
330
5EFB
100
AcDbSymbolTableRecord
100
AcDbBlockTableRecord
  2
*D13
340
0
  0
BLOCK_RECORD
  5
89C4
330
5EFB
100
AcDbSymbolTableRecord
100
AcDbBlockTableRecord
  2
*D14
340
0
  0
BLOCK_RECORD
  5
89D1
330
5EFB
100
AcDbSymbolTableRecord
100
AcDbBlockTableRecord
  2
*D15
340
0
  0
BLOCK_RECORD
  5
8A43
330
5EFB
100
AcDbSymbolTableRecord
100
AcDbBlockTableRecord
  2
*D16
340
0
  0
BLOCK_RECORD
  5
8C0B
330
5EFB
100
AcDbSymbolTableRecord
100
AcDbBlockTableRecord
  2
*D18
340
0
  0
BLOCK_RECORD
  5
8C18
330
5EFB
100
AcDbSymbolTableRecord
100
AcDbBlockTableRecord
  2
*D19
340
0
  0
BLOCK_RECORD
  5
8C25
330
5EFB
100
AcDbSymbolTableRecord
100
AcDbBlockTableRecord
  2
*D20
340
0
  0
BLOCK_RECORD
  5
8C32
330
5EFB
100
AcDbSymbolTableRecord
100
AcDbBlockTableRecord
  2
*D21
340
0
  0
BLOCK_RECORD
  5
8C3F
330
5EFB
100
AcDbSymbolTableRecord
100
AcDbBlockTableRecord
  2
*D22
340
0
  0
BLOCK_RECORD
  5
8C4C
330
5EFB
100
AcDbSymbolTableRecord
100
AcDbBlockTableRecord
  2
*D23
340
0
  0
BLOCK_RECORD
  5
8C58
102
{ACAD_XDICTIONARY
360
8C9B
102
}
330
5EFB
100
AcDbSymbolTableRecord
100
AcDbBlockTableRecord
  2
A$C7C742BA4
340
0
1001
ACAD
1000
DesignCenter Data
1002
{
1070
     1
1070
     1
1002
}
  0
BLOCK_RECORD
  5
8C9F
330
5EFB
100
AcDbSymbolTableRecord
100
AcDbBlockTableRecord
  2
*D25
340
0
  0
BLOCK_RECORD
  5
8CAD
330
5EFB
100
AcDbSymbolTableRecord
100
AcDbBlockTableRecord
  2
*D26
340
0
  0
BLOCK_RECORD
  5
8CBB
330
5EFB
100
AcDbSymbolTableRecord
100
AcDbBlockTableRecord
  2
*D27
340
0
  0
BLOCK_RECORD
  5
8CC9
330
5EFB
100
AcDbSymbolTableRecord
100
AcDbBlockTableRecord
  2
*D28
340
0
  0
BLOCK_RECORD
  5
8CD1
330
5EFB
100
AcDbSymbolTableRecord
100
AcDbBlockTableRecord
  2
*D29
340
0
  0
BLOCK_RECORD
  5
8CDF
330
5EFB
100
AcDbSymbolTableRecord
100
AcDbBlockTableRecord
  2
*D30
340
0
  0
BLOCK_RECORD
  5
8D77
330
5EFB
100
AcDbSymbolTableRecord
100
AcDbBlockTableRecord
  2
*D32
340
0
  0
BLOCK_RECORD
  5
8D85
330
5EFB
100
AcDbSymbolTableRecord
100
AcDbBlockTableRecord
  2
*D33
340
0
  0
BLOCK_RECORD
  5
8D93
330
5EFB
100
AcDbSymbolTableRecord
100
AcDbBlockTableRecord
  2
*D34
340
0
  0
BLOCK_RECORD
  5
8DA1
330
5EFB
100
AcDbSymbolTableRecord
100
AcDbBlockTableRecord
  2
*D35
340
0
  0
BLOCK_RECORD
  5
8DA9
330
5EFB
100
AcDbSymbolTableRecord
100
AcDbBlockTableRecord
  2
*D36
340
0
  0
BLOCK_RECORD
  5
8DB7
330
5EFB
100
AcDbSymbolTableRecord
100
AcDbBlockTableRecord
  2
*D37
340
0
  0
BLOCK_RECORD
  5
8E4E
330
5EFB
100
AcDbSymbolTableRecord
100
AcDbBlockTableRecord
  2
*D38
340
0
  0
BLOCK_RECORD
  5
8E58
330
5EFB
100
AcDbSymbolTableRecord
100
AcDbBlockTableRecord
  2
*D39
340
0
  0
BLOCK_RECORD
  5
8E67
330
5EFB
100
AcDbSymbolTableRecord
100
AcDbBlockTableRecord
  2
*D40
340
0
  0
BLOCK_RECORD
  5
8E9E
330
5EFB
100
AcDbSymbolTableRecord
100
AcDbBlockTableRecord
  2
*D41
340
0
  0
ENDTAB
  0
ENDSEC
  0
SECTION
  2
BLOCKS
  0
BLOCK
  5
5F6F
330
5F6E
100
AcDbEntity
  8
0
100
AcDbBlockBegin
  2
*Model_Space
 70
     0
 10
0.0
 20
0.0
 30
0.0
  3
*Model_Space
  1

  0
ENDBLK
  5
5F70
330
5F6E
100
AcDbEntity
  8
0
100
AcDbBlockEnd
  0
BLOCK
  5
5F6B
330
5F6A
100
AcDbEntity
 67
     1
  8
0
100
AcDbBlockBegin
  2
*Paper_Space
 70
     0
 10
0.0
 20
0.0
 30
0.0
  3
*Paper_Space
  1

  0
ENDBLK
  5
5F6C
330
5F6A
100
AcDbEntity
 67
     1
  8
0
100
AcDbBlockEnd
  0
BLOCK
  5
8610
330
860F
100
AcDbEntity
  8
0
100
AcDbBlockBegin
  2
*D0
 70
     1
 10
0.0
 20
0.0
 30
0.0
  3
*D0
  1

  0
LINE
  5
8781
330
860F
100
AcDbEntity
  8
标注
  6
Continuous
370
    -2
100
AcDbLine
 10
1313.712521274906
 20
176.1909182495404
 30
0.0
 11
1317.643538861865
 21
176.1909182495404
 31
0.0
  0
LINE
  5
8782
330
860F
100
AcDbEntity
  8
标注
  6
Continuous
370
    -2
100
AcDbLine
 10
1311.692132288515
 20
166.1909383573768
 30
0.0
 11
1317.643538861865
 21
166.1909383573768
 31
0.0
  0
LINE
  5
8783
330
860F
100
AcDbEntity
  8
标注
  6
Continuous
370
    -2
100
AcDbLine
 10
1317.323538861865
 20
175.5409182495404
 30
0.0
 11
1317.323538861865
 21
172.0863921506619
 31
0.0
  0
LINE
  5
8784
330
860F
100
AcDbEntity
  8
标注
  6
Continuous
370
    -2
100
AcDbLine
 10
1317.323538861865
 20
166.8409383573768
 30
0.0
 11
1317.323538861865
 21
170.2954644562553
 31
0.0
  0
MTEXT
  5
8785
330
860F
100
AcDbEntity
  8
标注
100
AcDbMText
 10
1317.323538861865
 20
171.1909283034588
 30
0.0
 40
0.65
 41
0.0
 71
     5
 72
     1
  1
\A1;10"
 11
0.0000000000000001
 21
1.0
 31
0.0
 73
     1
 44
1.0
1001
ACAD
1000
MTEXTBEGIN
1070
    73
1070
     1
1070
    44
1040
1.0
1070
    74
1070
     0
1000
MTEXTEND
  0
SOLID
  5
8786
330
860F
100
AcDbEntity
  8
标注
100
AcDbTrace
 10
1317.215205528532
 20
175.5409182495404
 30
0.0
 11
1317.431872195199
 21
175.5409182495404
 31
0.0
 12
1317.323538861865
 22
176.1909182495404
 32
0.0
 13
1317.323538861865
 23
176.1909182495404
 33
0.0
  0
SOLID
  5
8787
330
860F
100
AcDbEntity
  8
标注
100
AcDbTrace
 10
1317.215205528532
 20
166.8409383573768
 30
0.0
 11
1317.431872195199
 21
166.8409383573768
 31
0.0
 12
1317.323538861865
 22
166.1909383573768
 32
0.0
 13
1317.323538861865
 23
166.1909383573768
 33
0.0
  0
POINT
  5
8788
330
860F
100
AcDbEntity
  8
DEFPOINTS
 62
     0
100
AcDbPoint
 10
1312.832521274906
 20
176.1909182495404
 30
0.0
  0
POINT
  5
8789
330
860F
100
AcDbEntity
  8
DEFPOINTS
 62
     0
100
AcDbPoint
 10
1310.812132288515
 20
166.1909383573768
 30
0.0
  0
POINT
  5
878A
330
860F
100
AcDbEntity
  8
DEFPOINTS
 62
     0
100
AcDbPoint
 10
1317.323538861865
 20
166.1909383573768
 30
0.0
  0
ENDBLK
  5
8611
330
860F
100
AcDbEntity
  8
0
100
AcDbBlockEnd
  0
BLOCK
  5
861E
330
861D
100
AcDbEntity
  8
0
100
AcDbBlockBegin
  2
*D1
 70
     1
 10
0.0
 20
0.0
 30
0.0
  3
*D1
  1

  0
LINE
  5
86DD
330
861D
100
AcDbEntity
  8
标注
 48
5.0
370
    -2
100
AcDbLine
 10
1312.37394127491
 20
153.4714879729567
 30
0.0
 11
1315.756089483383
 21
153.4714879729567
 31
0.0
  0
LINE
  5
86DE
330
861D
100
AcDbEntity
  8
标注
 48
5.0
370
    -2
100
AcDbLine
 10
1312.37394127491
 20
137.4715199729384
 30
0.0
 11
1315.756089483383
 21
137.4715199729384
 31
0.0
  0
LINE
  5
86DF
330
861D
100
AcDbEntity
  8
标注
 48
5.0
370
    -2
100
AcDbLine
 10
1315.436089483383
 20
152.8214879729567
 30
0.0
 11
1315.436089483383
 21
146.3669678201652
 31
0.0
  0
LINE
  5
86E0
330
861D
100
AcDbEntity
  8
标注
 48
5.0
370
    -2
100
AcDbLine
 10
1315.436089483383
 20
138.1215199729384
 30
0.0
 11
1315.436089483383
 21
144.5760401257587
 31
0.0
  0
MTEXT
  5
86E1
330
861D
100
AcDbEntity
  8
标注
 48
5.0
100
AcDbMText
 10
1315.436089483412
 20
145.4715039729621
 30
0.0
 40
0.65
 41
0.0
 71
     5
 72
     1
  1
\A1;16"
 11
0.0000000000000001
 21
1.0
 31
0.0
 73
     1
 44
1.0
1001
ACAD
1000
MTEXTBEGIN
1070
    73
1070
     1
1070
    44
1040
1.0
1070
    74
1070
     0
1000
MTEXTEND
  0
SOLID
  5
86E2
330
861D
100
AcDbEntity
  8
标注
 48
5.0
100
AcDbTrace
 10
1315.32775615005
 20
152.8214879729567
 30
0.0
 11
1315.544422816716
 21
152.8214879729567
 31
0.0
 12
1315.436089483383
 22
153.4714879729567
 32
0.0
 13
1315.436089483383
 23
153.4714879729567
 33
0.0
  0
SOLID
  5
86E3
330
861D
100
AcDbEntity
  8
标注
 48
5.0
100
AcDbTrace
 10
1315.32775615005
 20
138.1215199729384
 30
0.0
 11
1315.544422816716
 21
138.1215199729384
 31
0.0
 12
1315.436089483383
 22
137.4715199729384
 32
0.0
 13
1315.436089483383
 23
137.4715199729384
 33
0.0
  0
POINT
  5
86E4
330
861D
100
AcDbEntity
  8
DEFPOINTS
 62
     0
 48
5.0
100
AcDbPoint
 10
1311.49394127491
 20
153.4714879729567
 30
0.0
  0
POINT
  5
86E5
330
861D
100
AcDbEntity
  8
DEFPOINTS
 62
     0
 48
5.0
100
AcDbPoint
 10
1311.49394127491
 20
137.4715199729384
 30
0.0
  0
POINT
  5
86E6
330
861D
100
AcDbEntity
  8
DEFPOINTS
 62
     0
 48
5.0
100
AcDbPoint
 10
1315.436089483383
 20
137.4715199729384
 30
0.0
  0
ENDBLK
  5
861F
330
861D
100
AcDbEntity
  8
0
100
AcDbBlockEnd
  0
BLOCK
  5
862B
330
862A
100
AcDbEntity
  8
0
100
AcDbBlockBegin
  2
*D2
 70
     1
 10
0.0
 20
0.0
 30
0.0
  3
*D2
  1

  0
LINE
  5
8805
330
862A
100
AcDbEntity
  8
标注
 48
5.0
370
    -2
100
AcDbLine
 10
1295.993873849906
 20
136.5915199729385
 30
0.0
 11
1295.993873849906
 21
132.2002470845155
 31
0.0
  0
LINE
  5
8806
330
862A
100
AcDbEntity
  8
标注
 48
5.0
370
    -2
100
AcDbLine
 10
1281.493804424902
 20
136.5915199729385
 30
0.0
 11
1281.493804424902
 21
132.2002470845155
 31
0.0
  0
LINE
  5
8807
330
862A
100
AcDbEntity
  8
标注
 48
5.0
370
    -2
100
AcDbLine
 10
1295.343873849906
 20
132.5202470845155
 30
0.0
 11
1291.396599756776
 21
132.5202470845155
 31
0.0
  0
LINE
  5
8808
330
862A
100
AcDbEntity
  8
标注
 48
5.0
370
    -2
100
AcDbLine
 10
1282.143804424902
 20
132.5202470845155
 30
0.0
 11
1288.091074518031
 21
132.5202470845155
 31
0.0
  0
MTEXT
  5
8809
330
862A
100
AcDbEntity
  8
标注
 48
5.0
100
AcDbMText
 10
1289.743837137403
 20
132.5202470845155
 30
0.0
 40
0.65
 41
0.0
 71
     5
 72
     1
  1
\A1;14 1/2"
 73
     1
 44
1.0
1001
ACAD
1000
MTEXTBEGIN
1070
    73
1070
     1
1070
    44
1040
1.0
1070
    74
1070
     0
1000
MTEXTEND
  0
SOLID
  5
880A
330
862A
100
AcDbEntity
  8
标注
 48
5.0
100
AcDbTrace
 10
1295.343873849906
 20
132.6285804178488
 30
0.0
 11
1295.343873849906
 21
132.4119137511821
 31
0.0
 12
1295.993873849906
 22
132.5202470845155
 32
0.0
 13
1295.993873849906
 23
132.5202470845155
 33
0.0
  0
SOLID
  5
880B
330
862A
100
AcDbEntity
  8
标注
 48
5.0
100
AcDbTrace
 10
1282.143804424902
 20
132.6285804178488
 30
0.0
 11
1282.143804424902
 21
132.4119137511821
 31
0.0
 12
1281.493804424902
 22
132.5202470845155
 32
0.0
 13
1281.493804424902
 23
132.5202470845155
 33
0.0
  0
POINT
  5
880C
330
862A
100
AcDbEntity
  8
DEFPOINTS
 62
     0
 48
5.0
100
AcDbPoint
 10
1295.993873849906
 20
137.4715199729384
 30
0.0
  0
POINT
  5
880D
330
862A
100
AcDbEntity
  8
DEFPOINTS
 62
     0
 48
5.0
100
AcDbPoint
 10
1281.493804424902
 20
137.4715199729384
 30
0.0
  0
POINT
  5
880E
330
862A
100
AcDbEntity
  8
DEFPOINTS
 62
     0
 48
5.0
100
AcDbPoint
 10
1281.493804424902
 20
132.5202470845155
 30
0.0
  0
ENDBLK
  5
862C
330
862A
100
AcDbEntity
  8
0
100
AcDbBlockEnd
  0
BLOCK
  5
8638
330
8637
100
AcDbEntity
  8
0
100
AcDbBlockBegin
  2
*D3
 70
     1
 10
0.0
 20
0.0
 30
0.0
  3
*D3
  1

  0
LINE
  5
880F
330
8637
100
AcDbEntity
  8
标注
 48
5.0
370
    -2
100
AcDbLine
 10
1312.93094627491
 20
134.0915249729474
 30
0.0
 11
1312.93094627491
 21
130.4437306777841
 31
0.0
  0
LINE
  5
8810
330
8637
100
AcDbEntity
  8
标注
 48
5.0
370
    -2
100
AcDbLine
 10
1280.056799424916
 20
134.0915249729474
 30
0.0
 11
1280.056799424916
 21
130.4437306777841
 31
0.0
  0
LINE
  5
8811
330
8637
100
AcDbEntity
  8
标注
 48
5.0
370
    -2
100
AcDbLine
 10
1312.28094627491
 20
130.7637306777841
 30
0.0
 11
1298.177007229176
 21
130.7637306777841
 31
0.0
  0
LINE
  5
8812
330
8637
100
AcDbEntity
  8
标注
 48
5.0
370
    -2
100
AcDbLine
 10
1280.706799424916
 20
130.7637306777841
 30
0.0
 11
1294.81073847065
 21
130.7637306777841
 31
0.0
  0
MTEXT
  5
8813
330
8637
100
AcDbEntity
  8
标注
 48
5.0
100
AcDbMText
 10
1296.493872849913
 20
130.7637306777841
 30
0.0
 40
0.65
 41
0.0
 71
     5
 72
     1
  1
\A1;32 7/8"
 73
     1
 44
1.0
1001
ACAD
1000
MTEXTBEGIN
1070
    73
1070
     1
1070
    44
1040
1.0
1070
    74
1070
     0
1000
MTEXTEND
  0
SOLID
  5
8814
330
8637
100
AcDbEntity
  8
标注
 48
5.0
100
AcDbTrace
 10
1312.28094627491
 20
130.8720640111174
 30
0.0
 11
1312.28094627491
 21
130.6553973444508
 31
0.0
 12
1312.93094627491
 22
130.7637306777841
 32
0.0
 13
1312.93094627491
 23
130.7637306777841
 33
0.0
  0
SOLID
  5
8815
330
8637
100
AcDbEntity
  8
标注
 48
5.0
100
AcDbTrace
 10
1280.706799424916
 20
130.8720640111174
 30
0.0
 11
1280.706799424916
 21
130.6553973444508
 31
0.0
 12
1280.056799424916
 22
130.7637306777841
 32
0.0
 13
1280.056799424916
 23
130.7637306777841
 33
0.0
  0
POINT
  5
8816
330
8637
100
AcDbEntity
  8
DEFPOINTS
 62
     0
 48
5.0
100
AcDbPoint
 10
1312.93094627491
 20
134.9715249729474
 30
0.0
  0
POINT
  5
8817
330
8637
100
AcDbEntity
  8
DEFPOINTS
 62
     0
 48
5.0
100
AcDbPoint
 10
1280.056799424916
 20
134.9715249729474
 30
0.0
  0
POINT
  5
8818
330
8637
100
AcDbEntity
  8
DEFPOINTS
 62
     0
 48
5.0
100
AcDbPoint
 10
1280.056799424916
 20
130.7637306777841
 30
0.0
  0
ENDBLK
  5
8639
330
8637
100
AcDbEntity
  8
0
100
AcDbBlockEnd
  0
BLOCK
  5
8645
330
8644
100
AcDbEntity
  8
0
100
AcDbBlockBegin
  2
*D4
 70
     1
 10
0.0
 20
0.0
 30
0.0
  3
*D4
  1

  0
LINE
  5
876D
330
8644
100
AcDbEntity
  8
标注
  6
Continuous
370
    -2
100
AcDbLine
 10
1313.81094627491
 20
154.9714849729339
 30
0.0
 11
1319.500571694496
 21
154.9714849729339
 31
0.0
  0
LINE
  5
876E
330
8644
100
AcDbEntity
  8
标注
  6
Continuous
370
    -2
100
AcDbLine
 10
1297.373872849913
 20
134.2215264729588
 30
0.0
 11
1319.500571694496
 21
134.2215264729588
 31
0.0
  0
LINE
  5
876F
330
8644
100
AcDbEntity
  8
标注
  6
Continuous
370
    -2
100
AcDbLine
 10
1319.180571694497
 20
154.3214849729339
 30
0.0
 11
1319.180571694497
 21
146.2854040858675
 31
0.0
  0
LINE
  5
8770
330
8644
100
AcDbEntity
  8
标注
  6
Continuous
370
    -2
100
AcDbLine
 10
1319.180571694497
 20
134.8715264729588
 30
0.0
 11
1319.180571694497
 21
142.907607360083
 31
0.0
  0
MTEXT
  5
8771
330
8644
100
AcDbEntity
  8
标注
100
AcDbMText
 10
1319.180571694526
 20
144.5965057229755
 30
0.0
 40
0.65
 41
0.0
 71
     5
 72
     1
  1
\A1;20 3/4"
 11
0.0000000000000001
 21
1.0
 31
0.0
 73
     1
 44
1.0
1001
ACAD
1000
MTEXTBEGIN
1070
    73
1070
     1
1070
    44
1040
1.0
1070
    74
1070
     0
1000
MTEXTEND
  0
SOLID
  5
8772
330
8644
100
AcDbEntity
  8
标注
100
AcDbTrace
 10
1319.072238361163
 20
154.3214849729339
 30
0.0
 11
1319.28890502783
 21
154.3214849729339
 31
0.0
 12
1319.180571694497
 22
154.9714849729339
 32
0.0
 13
1319.180571694497
 23
154.9714849729339
 33
0.0
  0
SOLID
  5
8773
330
8644
100
AcDbEntity
  8
标注
100
AcDbTrace
 10
1319.072238361163
 20
134.8715264729588
 30
0.0
 11
1319.28890502783
 21
134.8715264729588
 31
0.0
 12
1319.180571694497
 22
134.2215264729588
 32
0.0
 13
1319.180571694497
 23
134.2215264729588
 33
0.0
  0
POINT
  5
8774
330
8644
100
AcDbEntity
  8
DEFPOINTS
 62
     0
100
AcDbPoint
 10
1312.93094627491
 20
154.9714849729339
 30
0.0
  0
POINT
  5
8775
330
8644
100
AcDbEntity
  8
DEFPOINTS
 62
     0
100
AcDbPoint
 10
1296.493872849913
 20
134.2215264729588
 30
0.0
  0
POINT
  5
8776
330
8644
100
AcDbEntity
  8
DEFPOINTS
 62
     0
100
AcDbPoint
 10
1319.180571694497
 20
134.2215264729588
 30
0.0
  0
ENDBLK
  5
8646
330
8644
100
AcDbEntity
  8
0
100
AcDbBlockEnd
  0
BLOCK
  5
8652
330
8651
100
AcDbEntity
  8
0
100
AcDbBlockBegin
  2
*D5
 70
     1
 10
0.0
 20
0.0
 30
0.0
  3
*D5
  1

  0
LINE
  5
8777
330
8651
100
AcDbEntity
  8
标注
  6
Continuous
370
    -2
100
AcDbLine
 10
1313.712521274906
 20
176.1909182495404
 30
0.0
 11
1315.710350809861
 21
176.1909182495404
 31
0.0
  0
LINE
  5
8778
330
8651
100
AcDbEntity
  8
标注
  6
Continuous
370
    -2
100
AcDbLine
 10
1313.712521274906
 20
167.1909362495319
 30
0.0
 11
1315.710350809861
 21
167.1909362495319
 31
0.0
  0
LINE
  5
8779
330
8651
100
AcDbEntity
  8
标注
  6
Continuous
370
    -2
100
AcDbLine
 10
1315.390350809861
 20
175.5409182495404
 30
0.0
 11
1315.390350809861
 21
172.3644777270259
 31
0.0
  0
LINE
  5
877A
330
8651
100
AcDbEntity
  8
标注
  6
Continuous
370
    -2
100
AcDbLine
 10
1315.390350809861
 20
167.8409362495319
 30
0.0
 11
1315.390350809861
 21
171.0173767720464
 31
0.0
  0
SOLID
  5
877B
330
8651
100
AcDbEntity
  8
标注
100
AcDbTrace
 10
1315.282017476528
 20
175.5409182495404
 30
0.0
 11
1315.498684143195
 21
175.5409182495404
 31
0.0
 12
1315.390350809861
 22
176.1909182495404
 32
0.0
 13
1315.390350809861
 23
176.1909182495404
 33
0.0
  0
SOLID
  5
877C
330
8651
100
AcDbEntity
  8
标注
100
AcDbTrace
 10
1315.282017476528
 20
167.8409362495319
 30
0.0
 11
1315.498684143195
 21
167.8409362495319
 31
0.0
 12
1315.390350809861
 22
167.1909362495319
 32
0.0
 13
1315.390350809861
 23
167.1909362495319
 33
0.0
  0
MTEXT
  5
877D
330
8651
100
AcDbEntity
  8
标注
100
AcDbMText
 10
1315.390350809861
 20
171.6909272495364
 30
0.0
 40
0.65
 41
0.0
 71
     5
 72
     1
  1
\A1;9"
 11
0.0000000000000001
 21
1.0
 31
0.0
 73
     1
 44
1.0
1001
ACAD
1000
MTEXTBEGIN
1070
    73
1070
     1
1070
    44
1040
1.0
1070
    74
1070
     0
1000
MTEXTEND
  0
POINT
  5
877E
330
8651
100
AcDbEntity
  8
DEFPOINTS
 62
     0
100
AcDbPoint
 10
1312.832521274906
 20
176.1909182495404
 30
0.0
  0
POINT
  5
877F
330
8651
100
AcDbEntity
  8
DEFPOINTS
 62
     0
100
AcDbPoint
 10
1312.832521274906
 20
167.1909362495319
 30
0.0
  0
POINT
  5
8780
330
8651
100
AcDbEntity
  8
DEFPOINTS
 62
     0
100
AcDbPoint
 10
1315.390350809861
 20
167.1909362495319
 30
0.0
  0
ENDBLK
  5
8653
330
8651
100
AcDbEntity
  8
0
100
AcDbBlockEnd
  0
BLOCK
  5
8660
330
865F
100
AcDbEntity
  8
0
100
AcDbBlockBegin
  2
*D6
 70
     1
 10
0.0
 20
0.0
 30
0.0
  3
*D6
  1

  0
LINE
  5
8819
330
865F
100
AcDbEntity
  8
标注线
 48
5.0
370
    -2
100
AcDbLine
 10
1312.493103582672
 20
115.8323676398272
 30
0.0
 11
1315.202277365724
 21
115.8323676398272
 31
0.0
  0
LINE
  5
881A
330
865F
100
AcDbEntity
  8
标注线
 48
5.0
370
    -2
100
AcDbLine
 10
1312.493103582672
 20
97.13240515890214
 30
0.0
 11
1315.202277365724
 21
97.13240515890214
 31
0.0
  0
LINE
  5
881B
330
865F
100
AcDbEntity
  8
标注线
 48
5.0
370
    -2
100
AcDbLine
 10
1314.882277365724
 20
115.1823676398272
 30
0.0
 11
1314.882277365724
 21
108.1351490187371
 31
0.0
  0
LINE
  5
881C
330
865F
100
AcDbEntity
  8
标注线
 48
5.0
370
    -2
100
AcDbLine
 10
1314.882277365724
 20
97.78240515890216
 30
0.0
 11
1314.882277365724
 21
104.8296237799922
 31
0.0
  0
SOLID
  5
881D
330
865F
100
AcDbEntity
  8
标注线
 48
5.0
100
AcDbTrace
 10
1314.773944032391
 20
115.1823676398272
 30
0.0
 11
1314.990610699058
 21
115.1823676398272
 31
0.0
 12
1314.882277365724
 22
115.8323676398272
 32
0.0
 13
1314.882277365724
 23
115.8323676398272
 33
0.0
  0
SOLID
  5
881E
330
865F
100
AcDbEntity
  8
标注线
 48
5.0
100
AcDbTrace
 10
1314.773944032391
 20
97.78240515890216
 30
0.0
 11
1314.990610699058
 21
97.78240515890216
 31
0.0
 12
1314.882277365724
 22
97.13240515890214
 32
0.0
 13
1314.882277365724
 23
97.13240515890214
 33
0.0
  0
MTEXT
  5
881F
330
865F
100
AcDbEntity
  8
标注线
 48
5.0
100
AcDbMText
 10
1314.882277365724
 20
106.4823863993649
 30
0.0
 40
0.65
 41
0.0
 71
     5
 72
     1
  1
\A1;18 3/4"
 11
0.0000000000000001
 21
1.0
 31
0.0
 73
     1
 44
1.0
1001
ACAD
1000
MTEXTBEGIN
1070
    73
1070
     1
1070
    44
1040
1.0
1070
    74
1070
     0
1000
MTEXTEND
  0
POINT
  5
8820
330
865F
100
AcDbEntity
  8
DEFPOINTS
 62
     0
 48
5.0
100
AcDbPoint
 10
1311.613103582671
 20
115.8323676398272
 30
0.0
  0
POINT
  5
8821
330
865F
100
AcDbEntity
  8
DEFPOINTS
 62
     0
 48
5.0
100
AcDbPoint
 10
1311.613103582671
 20
97.1324051589022
 30
0.0
  0
POINT
  5
8822
330
865F
100
AcDbEntity
  8
DEFPOINTS
 62
     0
 48
5.0
100
AcDbPoint
 10
1314.882277365724
 20
97.13240515890214
 30
0.0
  0
ENDBLK
  5
8661
330
865F
100
AcDbEntity
  8
0
100
AcDbBlockEnd
  0
BLOCK
  5
8678
330
8677
100
AcDbEntity
  8
0
100
AcDbBlockBegin
  2
*D7
 70
     1
 10
0.0
 20
0.0
 30
0.0
  3
*D7
  1

  0
LINE
  5
87DA
330
8677
100
AcDbEntity
  8
标注
  6
Continuous
370
    -2
100
AcDbLine
 10
1279.275224424905
 20
176.1909182495404
 30
0.0
 11
1277.569130957598
 21
176.1909182495404
 31
0.0
  0
LINE
  5
87DB
330
8677
100
AcDbEntity
  8
标注
  6
Continuous
370
    -2
100
AcDbLine
 10
1279.297730332591
 20
166.1907074628655
 30
0.0
 11
1277.569130957598
 21
166.1907074628655
 31
0.0
  0
LINE
  5
87DC
330
8677
100
AcDbEntity
  8
标注
  6
Continuous
370
    -2
100
AcDbLine
 10
1277.889130957598
 20
175.5409182495404
 30
0.0
 11
1277.889130957598
 21
172.0862767034062
 31
0.0
  0
LINE
  5
87DD
330
8677
100
AcDbEntity
  8
标注
  6
Continuous
370
    -2
100
AcDbLine
 10
1277.889130957598
 20
166.8407074628655
 30
0.0
 11
1277.889130957598
 21
170.2953490089997
 31
0.0
  0
SOLID
  5
87DE
330
8677
100
AcDbEntity
  8
标注
100
AcDbTrace
 10
1277.780797624264
 20
175.5409182495404
 30
0.0
 11
1277.997464290931
 21
175.5409182495404
 31
0.0
 12
1277.889130957598
 22
176.1909182495404
 32
0.0
 13
1277.889130957598
 23
176.1909182495404
 33
0.0
  0
SOLID
  5
87DF
330
8677
100
AcDbEntity
  8
标注
100
AcDbTrace
 10
1277.780797624264
 20
166.8407074628655
 30
0.0
 11
1277.997464290931
 21
166.8407074628655
 31
0.0
 12
1277.889130957598
 22
166.1907074628655
 32
0.0
 13
1277.889130957598
 23
166.1907074628655
 33
0.0
  0
MTEXT
  5
87E0
330
8677
100
AcDbEntity
  8
标注
100
AcDbMText
 10
1277.889130957598
 20
171.1908128562031
 30
0.0
 40
0.65
 41
0.0
 71
     5
 72
     1
  1
\A1;10"
 11
0.0000000000000001
 21
1.0
 31
0.0
 73
     1
 44
1.0
1001
ACAD
1000
MTEXTBEGIN
1070
    73
1070
     1
1070
    44
1040
1.0
1070
    74
1070
     0
1000
MTEXTEND
  0
POINT
  5
87E1
330
8677
100
AcDbEntity
  8
DEFPOINTS
 62
     0
100
AcDbPoint
 10
1280.155224424905
 20
176.1909182495404
 30
0.0
  0
POINT
  5
87E2
330
8677
100
AcDbEntity
  8
DEFPOINTS
 62
     0
100
AcDbPoint
 10
1280.177730332592
 20
166.1907074628655
 30
0.0
  0
POINT
  5
87E3
330
8677
100
AcDbEntity
  8
DEFPOINTS
 62
     0
100
AcDbPoint
 10
1277.889130957598
 20
166.1907074628655
 30
0.0
  0
ENDBLK
  5
8679
330
8677
100
AcDbEntity
  8
0
100
AcDbBlockEnd
  0
BLOCK
  5
8686
330
8685
100
AcDbEntity
  8
0
100
AcDbBlockBegin
  2
*D8
 70
     1
 10
0.0
 20
0.0
 30
0.0
  3
*D8
  1

  0
LINE
  5
8823
330
8685
100
AcDbEntity
  8
标注线
 48
5.0
370
    -2
100
AcDbLine
 10
1281.455486732668
 20
96.25240515890221
 30
0.0
 11
1281.455486732668
 21
93.6652988023577
 31
0.0
  0
LINE
  5
8824
330
8685
100
AcDbEntity
  8
标注线
 48
5.0
370
    -2
100
AcDbLine
 10
1311.613103582671
 20
96.25240515890221
 30
0.0
 11
1311.613103582671
 21
93.6652988023577
 31
0.0
  0
LINE
  5
8825
330
8685
100
AcDbEntity
  8
标注线
 48
5.0
370
    -2
100
AcDbLine
 10
1282.105486732668
 20
93.98529880235768
 30
0.0
 11
1294.851160778407
 21
93.98529880235768
 31
0.0
  0
LINE
  5
8826
330
8685
100
AcDbEntity
  8
标注线
 48
5.0
370
    -2
100
AcDbLine
 10
1310.963103582671
 20
93.98529880235768
 30
0.0
 11
1298.217429536933
 21
93.98529880235768
 31
0.0
  0
SOLID
  5
8827
330
8685
100
AcDbEntity
  8
标注线
 48
5.0
100
AcDbTrace
 10
1282.105486732668
 20
94.09363213569099
 30
0.0
 11
1282.105486732668
 21
93.87696546902436
 31
0.0
 12
1281.455486732668
 22
93.98529880235768
 32
0.0
 13
1281.455486732668
 23
93.98529880235768
 33
0.0
  0
SOLID
  5
8828
330
8685
100
AcDbEntity
  8
标注线
 48
5.0
100
AcDbTrace
 10
1310.963103582671
 20
94.09363213569099
 30
0.0
 11
1310.963103582671
 21
93.87696546902436
 31
0.0
 12
1311.613103582671
 22
93.98529880235768
 32
0.0
 13
1311.613103582671
 23
93.98529880235768
 33
0.0
  0
MTEXT
  5
8829
330
8685
100
AcDbEntity
  8
标注线
 48
5.0
100
AcDbMText
 10
1296.53429515767
 20
93.98529880235768
 30
0.0
 40
0.65
 41
0.0
 71
     5
 72
     1
  1
\A1;30 1/8"
 73
     1
 44
1.0
1001
ACAD
1000
MTEXTBEGIN
1070
    73
1070
     1
1070
    44
1040
1.0
1070
    74
1070
     0
1000
MTEXTEND
  0
POINT
  5
882A
330
8685
100
AcDbEntity
  8
DEFPOINTS
 62
     0
 48
5.0
100
AcDbPoint
 10
1281.455486732668
 20
97.1324051589022
 30
0.0
  0
POINT
  5
882B
330
8685
100
AcDbEntity
  8
DEFPOINTS
 62
     0
 48
5.0
100
AcDbPoint
 10
1311.613103582671
 20
97.1324051589022
 30
0.0
  0
POINT
  5
882C
330
8685
100
AcDbEntity
  8
DEFPOINTS
 62
     0
 48
5.0
100
AcDbPoint
 10
1311.613103582671
 20
93.98529880235768
 30
0.0
  0
ENDBLK
  5
8687
330
8685
100
AcDbEntity
  8
0
100
AcDbBlockEnd
  0
BLOCK
  5
86BB
330
86BA
100
AcDbEntity
  8
0
100
AcDbBlockBegin
  2
*D9
 70
     1
 10
0.0
 20
0.0
 30
0.0
  3
*D9
  1

  0
LINE
  5
87FB
330
86BA
100
AcDbEntity
  8
标注线
 48
5.0
370
    -2
100
AcDbLine
 10
1296.993871849905
 20
136.5915199729385
 30
0.0
 11
1296.993871849905
 21
132.2002470845155
 31
0.0
  0
LINE
  5
87FC
330
86BA
100
AcDbEntity
  8
标注线
 48
5.0
370
    -2
100
AcDbLine
 10
1311.49394127491
 20
136.5915199729385
 30
0.0
 11
1311.49394127491
 21
132.2002470845155
 31
0.0
  0
LINE
  5
87FD
330
86BA
100
AcDbEntity
  8
标注线
 48
5.0
370
    -2
100
AcDbLine
 10
1297.643871849906
 20
132.5202470845155
 30
0.0
 11
1302.591143943035
 21
132.5202470845155
 31
0.0
  0
LINE
  5
87FE
330
86BA
100
AcDbEntity
  8
标注线
 48
5.0
370
    -2
100
AcDbLine
 10
1310.84394127491
 20
132.5202470845155
 30
0.0
 11
1305.89666918178
 21
132.5202470845155
 31
0.0
  0
SOLID
  5
87FF
330
86BA
100
AcDbEntity
  8
标注线
 48
5.0
100
AcDbTrace
 10
1297.643871849906
 20
132.6285804178488
 30
0.0
 11
1297.643871849906
 21
132.4119137511821
 31
0.0
 12
1296.993871849905
 22
132.5202470845155
 32
0.0
 13
1296.993871849905
 23
132.5202470845155
 33
0.0
  0
SOLID
  5
8800
330
86BA
100
AcDbEntity
  8
标注线
 48
5.0
100
AcDbTrace
 10
1310.84394127491
 20
132.6285804178488
 30
0.0
 11
1310.84394127491
 21
132.4119137511821
 31
0.0
 12
1311.49394127491
 22
132.5202470845155
 32
0.0
 13
1311.49394127491
 23
132.5202470845155
 33
0.0
  0
MTEXT
  5
8801
330
86BA
100
AcDbEntity
  8
标注线
 48
5.0
100
AcDbMText
 10
1304.243906562408
 20
132.5202470845155
 30
0.0
 40
0.65
 41
0.0
 71
     5
 72
     1
  1
\A1;14 1/2"
 73
     1
 44
1.0
1001
ACAD
1000
MTEXTBEGIN
1070
    73
1070
     1
1070
    44
1040
1.0
1070
    74
1070
     0
1000
MTEXTEND
  0
POINT
  5
8802
330
86BA
100
AcDbEntity
  8
DEFPOINTS
 62
     0
 48
5.0
100
AcDbPoint
 10
1296.993871849905
 20
137.4715199729384
 30
0.0
  0
POINT
  5
8803
330
86BA
100
AcDbEntity
  8
DEFPOINTS
 62
     0
 48
5.0
100
AcDbPoint
 10
1311.49394127491
 20
137.4715199729384
 30
0.0
  0
POINT
  5
8804
330
86BA
100
AcDbEntity
  8
DEFPOINTS
 62
     0
 48
5.0
100
AcDbPoint
 10
1311.49394127491
 20
132.5202470845155
 30
0.0
  0
ENDBLK
  5
86BC
330
86BA
100
AcDbEntity
  8
0
100
AcDbBlockEnd
  0
BLOCK
  5
8969
330
8968
100
AcDbEntity
  8
0
100
AcDbBlockBegin
  2
*D10
 70
     1
 10
0.0
 20
0.0
 30
0.0
  3
*D10
  1

  0
LINE
  5
8A1A
330
8968
100
AcDbEntity
  8
标注线
 48
5.0
370
    -2
100
AcDbLine
 10
1369.021459276496
 20
136.7952567081138
 30
0.0
 11
1369.021459276496
 21
133.9128341796536
 31
0.0
  0
LINE
  5
8A1B
330
8968
100
AcDbEntity
  8
标注线
 48
5.0
370
    -2
100
AcDbLine
 10
1399.021399276505
 20
136.7952567081138
 30
0.0
 11
1399.021399276505
 21
133.9128341796536
 31
0.0
  0
LINE
  5
8A1C
330
8968
100
AcDbEntity
  8
标注线
 48
5.0
370
    -2
100
AcDbLine
 10
1369.671459276496
 20
134.2328341796536
 30
0.0
 11
1383.095593669406
 21
134.2328341796536
 31
0.0
  0
LINE
  5
8A1D
330
8968
100
AcDbEntity
  8
标注线
 48
5.0
370
    -2
100
AcDbLine
 10
1398.371399276505
 20
134.2328341796536
 30
0.0
 11
1384.947264883594
 21
134.2328341796536
 31
0.0
  0
MTEXT
  5
8A1E
330
8968
100
AcDbEntity
  8
标注线
 48
5.0
100
AcDbMText
 10
1384.0214292765
 20
134.2328341796536
 30
0.0
 40
0.65
 41
0.0
 71
     5
 72
     1
  1
\A1;30"
 73
     1
 44
1.0
1001
ACAD
1000
MTEXTBEGIN
1070
    73
1070
     1
1070
    44
1040
1.0
1070
    74
1070
     0
1000
MTEXTEND
  0
SOLID
  5
8A1F
330
8968
100
AcDbEntity
  8
标注线
 48
5.0
100
AcDbTrace
 10
1369.671459276496
 20
134.3411675129869
 30
0.0
 11
1369.671459276496
 21
134.1245008463203
 31
0.0
 12
1369.021459276496
 22
134.2328341796536
 32
0.0
 13
1369.021459276496
 23
134.2328341796536
 33
0.0
  0
SOLID
  5
8A20
330
8968
100
AcDbEntity
  8
标注线
 48
5.0
100
AcDbTrace
 10
1398.371399276505
 20
134.3411675129869
 30
0.0
 11
1398.371399276505
 21
134.1245008463203
 31
0.0
 12
1399.021399276505
 22
134.2328341796536
 32
0.0
 13
1399.021399276505
 23
134.2328341796536
 33
0.0
  0
POINT
  5
8A21
330
8968
100
AcDbEntity
  8
DEFPOINTS
 62
     0
 48
5.0
100
AcDbPoint
 10
1369.021459276496
 20
137.6752567081138
 30
0.0
  0
POINT
  5
8A22
330
8968
100
AcDbEntity
  8
DEFPOINTS
 62
     0
 48
5.0
100
AcDbPoint
 10
1399.021399276505
 20
137.6752567081138
 30
0.0
  0
POINT
  5
8A23
330
8968
100
AcDbEntity
  8
DEFPOINTS
 62
     0
 48
5.0
100
AcDbPoint
 10
1399.021399276505
 20
134.2328341796536
 30
0.0
  0
ENDBLK
  5
896A
330
8968
100
AcDbEntity
  8
0
100
AcDbBlockEnd
  0
BLOCK
  5
8976
330
8975
100
AcDbEntity
  8
0
100
AcDbBlockBegin
  2
*D11
 70
     1
 10
0.0
 20
0.0
 30
0.0
  3
*D11
  1

  0
LINE
  5
8A24
330
8975
100
AcDbEntity
  8
标注线
 48
5.0
370
    -2
100
AcDbLine
 10
1400.295099276505
 20
156.0689207081167
 30
0.0
 11
1403.640340201665
 21
156.0689207081167
 31
0.0
  0
LINE
  5
8A25
330
8975
100
AcDbEntity
  8
标注线
 48
5.0
370
    -2
100
AcDbLine
 10
1400.295099276505
 20
138.0689567081143
 30
0.0
 11
1403.640340201665
 21
138.0689567081143
 31
0.0
  0
LINE
  5
8A26
330
8975
100
AcDbEntity
  8
标注线
 48
5.0
370
    -2
100
AcDbLine
 10
1403.320340201665
 20
155.4189207081166
 30
0.0
 11
1403.320340201665
 21
147.9644025553404
 31
0.0
  0
LINE
  5
8A27
330
8975
100
AcDbEntity
  8
标注线
 48
5.0
370
    -2
100
AcDbLine
 10
1403.320340201665
 20
138.7189567081143
 30
0.0
 11
1403.320340201665
 21
146.1734748609338
 31
0.0
  0
MTEXT
  5
8A28
330
8975
100
AcDbEntity
  8
标注线
 48
5.0
100
AcDbMText
 10
1403.32034020168
 20
147.0689387081373
 30
0.0
 40
0.65
 41
0.0
 71
     5
 72
     1
  1
\A1;18"
 11
0.0000000000000001
 21
1.0
 31
0.0
 73
     1
 44
1.0
1001
ACAD
1000
MTEXTBEGIN
1070
    73
1070
     1
1070
    44
1040
1.0
1070
    74
1070
     0
1000
MTEXTEND
  0
SOLID
  5
8A29
330
8975
100
AcDbEntity
  8
标注线
 48
5.0
100
AcDbTrace
 10
1403.212006868332
 20
155.4189207081166
 30
0.0
 11
1403.428673534999
 21
155.4189207081166
 31
0.0
 12
1403.320340201665
 22
156.0689207081167
 32
0.0
 13
1403.320340201665
 23
156.0689207081167
 33
0.0
  0
SOLID
  5
8A2A
330
8975
100
AcDbEntity
  8
标注线
 48
5.0
100
AcDbTrace
 10
1403.212006868332
 20
138.7189567081143
 30
0.0
 11
1403.428673534999
 21
138.7189567081143
 31
0.0
 12
1403.320340201665
 22
138.0689567081143
 32
0.0
 13
1403.320340201665
 23
138.0689567081143
 33
0.0
  0
POINT
  5
8A2B
330
8975
100
AcDbEntity
  8
DEFPOINTS
 62
     0
 48
5.0
100
AcDbPoint
 10
1399.415099276505
 20
156.0689207081167
 30
0.0
  0
POINT
  5
8A2C
330
8975
100
AcDbEntity
  8
DEFPOINTS
 62
     0
 48
5.0
100
AcDbPoint
 10
1399.415099276505
 20
138.0689567081143
 30
0.0
  0
POINT
  5
8A2D
330
8975
100
AcDbEntity
  8
DEFPOINTS
 62
     0
 48
5.0
100
AcDbPoint
 10
1403.320340201665
 20
138.0689567081143
 30
0.0
  0
ENDBLK
  5
8977
330
8975
100
AcDbEntity
  8
0
100
AcDbBlockEnd
  0
BLOCK
  5
8983
330
8982
100
AcDbEntity
  8
0
100
AcDbBlockBegin
  2
*D12
 70
     1
 10
0.0
 20
0.0
 30
0.0
  3
*D12
  1

  0
LINE
  5
8BBB
330
8982
100
AcDbEntity
  8
标注线
 48
5.0
370
    -2
100
AcDbLine
 10
1400.295099276505
 20
155.0689227081173
 30
0.0
 11
1401.629899276493
 21
155.0689227081173
 31
0.0
  0
LINE
  5
8BBC
330
8982
100
AcDbEntity
  8
标注线
 48
5.0
370
    -2
100
AcDbLine
 10
1400.295099276505
 20
139.0689547081136
 30
0.0
 11
1401.629899276493
 21
139.0689547081136
 31
0.0
  0
LINE
  5
8BBD
330
8982
100
AcDbEntity
  8
标注线
 48
5.0
370
    -2
100
AcDbLine
 10
1401.309899276493
 20
154.4189227081173
 30
0.0
 11
1401.309899276493
 21
147.9644025553404
 31
0.0
  0
LINE
  5
8BBE
330
8982
100
AcDbEntity
  8
标注线
 48
5.0
370
    -2
100
AcDbLine
 10
1401.309899276493
 20
139.7189547081136
 30
0.0
 11
1401.309899276493
 21
146.1734748609338
 31
0.0
  0
MTEXT
  5
8BBF
330
8982
100
AcDbEntity
  8
标注线
 48
5.0
100
AcDbMText
 10
1401.309899276508
 20
147.0689387081373
 30
0.0
 40
0.65
 41
0.0
 71
     5
 72
     1
  1
\A1;16"
 11
0.0000000000000001
 21
1.0
 31
0.0
 73
     1
 44
1.0
1001
ACAD
1000
MTEXTBEGIN
1070
    73
1070
     1
1070
    44
1040
1.0
1070
    74
1070
     0
1000
MTEXTEND
  0
SOLID
  5
8BC0
330
8982
100
AcDbEntity
  8
标注线
 48
5.0
100
AcDbTrace
 10
1401.20156594316
 20
154.4189227081173
 30
0.0
 11
1401.418232609826
 21
154.4189227081173
 31
0.0
 12
1401.309899276493
 22
155.0689227081173
 32
0.0
 13
1401.309899276493
 23
155.0689227081173
 33
0.0
  0
SOLID
  5
8BC1
330
8982
100
AcDbEntity
  8
标注线
 48
5.0
100
AcDbTrace
 10
1401.20156594316
 20
139.7189547081136
 30
0.0
 11
1401.418232609826
 21
139.7189547081136
 31
0.0
 12
1401.309899276493
 22
139.0689547081136
 32
0.0
 13
1401.309899276493
 23
139.0689547081136
 33
0.0
  0
POINT
  5
8BC2
330
8982
100
AcDbEntity
  8
DEFPOINTS
 62
     0
 48
5.0
100
AcDbPoint
 10
1399.415099276505
 20
155.0689227081173
 30
0.0
  0
POINT
  5
8BC3
330
8982
100
AcDbEntity
  8
DEFPOINTS
 62
     0
 48
5.0
100
AcDbPoint
 10
1399.415099276505
 20
139.0689547081136
 30
0.0
  0
POINT
  5
8BC4
330
8982
100
AcDbEntity
  8
DEFPOINTS
 62
     0
 48
5.0
100
AcDbPoint
 10
1401.309899276493
 20
139.0689547081136
 30
0.0
  0
ENDBLK
  5
8984
330
8982
100
AcDbEntity
  8
0
100
AcDbBlockEnd
  0
BLOCK
  5
8990
330
898F
100
AcDbEntity
  8
0
100
AcDbBlockBegin
  2
*D13
 70
     1
 10
0.0
 20
0.0
 30
0.0
  3
*D13
  1

  0
LINE
  5
8A38
330
898F
100
AcDbEntity
  8
标注线
 48
5.0
370
    -2
100
AcDbLine
 10
1370.021457276495
 20
136.7952567081138
 30
0.0
 11
1370.021457276495
 21
135.7804567081116
 31
0.0
  0
LINE
  5
8A39
330
898F
100
AcDbEntity
  8
标注线
 48
5.0
370
    -2
100
AcDbLine
 10
1398.021401276505
 20
136.7952567081138
 30
0.0
 11
1398.021401276505
 21
135.7804567081116
 31
0.0
  0
LINE
  5
8A3A
330
898F
100
AcDbEntity
  8
标注线
 48
5.0
370
    -2
100
AcDbLine
 10
1370.671457276495
 20
136.1004567081115
 30
0.0
 11
1383.089829685778
 21
136.1004567081115
 31
0.0
  0
LINE
  5
8A3B
330
898F
100
AcDbEntity
  8
标注线
 48
5.0
370
    -2
100
AcDbLine
 10
1397.371401276505
 20
136.1004567081115
 30
0.0
 11
1384.953028867223
 21
136.1004567081115
 31
0.0
  0
SOLID
  5
8A3C
330
898F
100
AcDbEntity
  8
标注线
 48
5.0
100
AcDbTrace
 10
1370.671457276495
 20
136.2087900414449
 30
0.0
 11
1370.671457276495
 21
135.9921233747783
 31
0.0
 12
1370.021457276495
 22
136.1004567081115
 32
0.0
 13
1370.021457276495
 23
136.1004567081115
 33
0.0
  0
SOLID
  5
8A3D
330
898F
100
AcDbEntity
  8
标注线
 48
5.0
100
AcDbTrace
 10
1397.371401276505
 20
136.2087900414449
 30
0.0
 11
1397.371401276505
 21
135.9921233747783
 31
0.0
 12
1398.021401276505
 22
136.1004567081115
 32
0.0
 13
1398.021401276505
 23
136.1004567081115
 33
0.0
  0
MTEXT
  5
8A3E
330
898F
100
AcDbEntity
  8
标注线
 48
5.0
100
AcDbMText
 10
1384.0214292765
 20
136.1004567081115
 30
0.0
 40
0.65
 41
0.0
 71
     5
 72
     1
  1
\A1;28"
 73
     1
 44
1.0
1001
ACAD
1000
MTEXTBEGIN
1070
    73
1070
     1
1070
    44
1040
1.0
1070
    74
1070
     0
1000
MTEXTEND
  0
POINT
  5
8A3F
330
898F
100
AcDbEntity
  8
DEFPOINTS
 62
     0
 48
5.0
100
AcDbPoint
 10
1370.021457276495
 20
137.6752567081138
 30
0.0
  0
POINT
  5
8A40
330
898F
100
AcDbEntity
  8
DEFPOINTS
 62
     0
 48
5.0
100
AcDbPoint
 10
1398.021401276505
 20
137.6752567081138
 30
0.0
  0
POINT
  5
8A41
330
898F
100
AcDbEntity
  8
DEFPOINTS
 62
     0
 48
5.0
100
AcDbPoint
 10
1398.021401276505
 20
136.1004567081115
 30
0.0
  0
ENDBLK
  5
8991
330
898F
100
AcDbEntity
  8
0
100
AcDbBlockEnd
  0
BLOCK
  5
89C5
330
89C4
100
AcDbEntity
  8
0
100
AcDbBlockBegin
  2
*D14
 70
     1
 10
0.0
 20
0.0
 30
0.0
  3
*D14
  1

  0
LINE
  5
8A06
330
89C4
100
AcDbEntity
  8
标注线
 48
5.0
370
    -2
100
AcDbLine
 10
1370.021457276495
 20
101.7968589123414
 30
0.0
 11
1370.021457276495
 21
99.99987259630408
 31
0.0
  0
LINE
  5
8A07
330
89C4
100
AcDbEntity
  8
标注线
 48
5.0
370
    -2
100
AcDbLine
 10
1398.1788812765
 20
101.7968589123414
 30
0.0
 11
1398.1788812765
 21
99.99987259630408
 31
0.0
  0
LINE
  5
8A08
330
89C4
100
AcDbEntity
  8
标注线
 48
5.0
370
    -2
100
AcDbLine
 10
1370.671457276495
 20
100.3198725963041
 30
0.0
 11
1382.411270913606
 21
100.3198725963041
 31
0.0
  0
LINE
  5
8A09
330
89C4
100
AcDbEntity
  8
标注线
 48
5.0
370
    -2
100
AcDbLine
 10
1397.5288812765
 20
100.3198725963041
 30
0.0
 11
1385.78906763939
 21
100.3198725963041
 31
0.0
  0
SOLID
  5
8A0A
330
89C4
100
AcDbEntity
  8
标注线
 48
5.0
100
AcDbTrace
 10
1370.671457276495
 20
100.4282059296374
 30
0.0
 11
1370.671457276495
 21
100.2115392629707
 31
0.0
 12
1370.021457276495
 22
100.3198725963041
 32
0.0
 13
1370.021457276495
 23
100.3198725963041
 33
0.0
  0
SOLID
  5
8A0B
330
89C4
100
AcDbEntity
  8
标注线
 48
5.0
100
AcDbTrace
 10
1397.5288812765
 20
100.4282059296374
 30
0.0
 11
1397.5288812765
 21
100.2115392629707
 31
0.0
 12
1398.1788812765
 22
100.3198725963041
 32
0.0
 13
1398.1788812765
 23
100.3198725963041
 33
0.0
  0
MTEXT
  5
8A0C
330
89C4
100
AcDbEntity
  8
标注线
 48
5.0
100
AcDbMText
 10
1384.100169276498
 20
100.3198725963041
 30
0.0
 40
0.65
 41
0.0
 71
     5
 72
     1
  1
\A1;28 1/8"
 73
     1
 44
1.0
1001
ACAD
1000
MTEXTBEGIN
1070
    73
1070
     1
1070
    44
1040
1.0
1070
    74
1070
     0
1000
MTEXTEND
  0
POINT
  5
8A0D
330
89C4
100
AcDbEntity
  8
DEFPOINTS
 62
     0
 48
5.0
100
AcDbPoint
 10
1370.021457276495
 20
102.6768589123414
 30
0.0
  0
POINT
  5
8A0E
330
89C4
100
AcDbEntity
  8
DEFPOINTS
 62
     0
 48
5.0
100
AcDbPoint
 10
1398.1788812765
 20
102.6768589123414
 30
0.0
  0
POINT
  5
8A0F
330
89C4
100
AcDbEntity
  8
DEFPOINTS
 62
     0
 48
5.0
100
AcDbPoint
 10
1398.1788812765
 20
100.3198725963041
 30
0.0
  0
ENDBLK
  5
89C6
330
89C4
100
AcDbEntity
  8
0
100
AcDbBlockEnd
  0
BLOCK
  5
89D2
330
89D1
100
AcDbEntity
  8
0
100
AcDbBlockBegin
  2
*D15
 70
     1
 10
0.0
 20
0.0
 30
0.0
  3
*D15
  1

  0
LINE
  5
8A10
330
89D1
100
AcDbEntity
  8
标注线
 48
5.0
370
    -2
100
AcDbLine
 10
1399.0588812765
 20
118.8343069123396
 30
0.0
 11
1400.742646127699
 21
118.8343069123396
 31
0.0
  0
LINE
  5
8A11
330
89D1
100
AcDbEntity
  8
标注线
 48
5.0
370
    -2
100
AcDbLine
 10
1399.0588812765
 20
102.6768589123414
 30
0.0
 11
1400.742646127699
 21
102.6768589123414
 31
0.0
  0
LINE
  5
8A12
330
89D1
100
AcDbEntity
  8
标注线
 48
5.0
370
    -2
100
AcDbLine
 10
1400.422646127698
 20
118.1843069123395
 30
0.0
 11
1400.422646127698
 21
112.4083455317129
 31
0.0
  0
LINE
  5
8A13
330
89D1
100
AcDbEntity
  8
标注线
 48
5.0
370
    -2
100
AcDbLine
 10
1400.422646127698
 20
103.3268589123414
 30
0.0
 11
1400.422646127698
 21
109.102820292968
 31
0.0
  0
SOLID
  5
8A14
330
89D1
100
AcDbEntity
  8
标注线
 48
5.0
100
AcDbTrace
 10
1400.314312794365
 20
118.1843069123395
 30
0.0
 11
1400.530979461032
 21
118.1843069123395
 31
0.0
 12
1400.422646127698
 22
118.8343069123396
 32
0.0
 13
1400.422646127698
 23
118.8343069123396
 33
0.0
  0
SOLID
  5
8A15
330
89D1
100
AcDbEntity
  8
标注线
 48
5.0
100
AcDbTrace
 10
1400.314312794365
 20
103.3268589123414
 30
0.0
 11
1400.530979461032
 21
103.3268589123414
 31
0.0
 12
1400.422646127698
 22
102.6768589123414
 32
0.0
 13
1400.422646127698
 23
102.6768589123414
 33
0.0
  0
MTEXT
  5
8A16
330
89D1
100
AcDbEntity
  8
标注线
 48
5.0
100
AcDbMText
 10
1400.422646127698
 20
110.7555829123407
 30
0.0
 40
0.65
 41
0.0
 71
     5
 72
     1
  1
\A1;16 1/8"
 11
0.0000000000000001
 21
1.0
 31
0.0
 73
     1
 44
1.0
1001
ACAD
1000
MTEXTBEGIN
1070
    73
1070
     1
1070
    44
1040
1.0
1070
    74
1070
     0
1000
MTEXTEND
  0
POINT
  5
8A17
330
89D1
100
AcDbEntity
  8
DEFPOINTS
 62
     0
 48
5.0
100
AcDbPoint
 10
1398.1788812765
 20
118.8343069123396
 30
0.0
  0
POINT
  5
8A18
330
89D1
100
AcDbEntity
  8
DEFPOINTS
 62
     0
 48
5.0
100
AcDbPoint
 10
1398.1788812765
 20
102.6768589123414
 30
0.0
  0
POINT
  5
8A19
330
89D1
100
AcDbEntity
  8
DEFPOINTS
 62
     0
 48
5.0
100
AcDbPoint
 10
1400.422646127698
 20
102.6768589123414
 30
0.0
  0
ENDBLK
  5
89D3
330
89D1
100
AcDbEntity
  8
0
100
AcDbBlockEnd
  0
BLOCK
  5
8A44
330
8A43
100
AcDbEntity
  8
0
100
AcDbBlockBegin
  2
*D16
 70
     1
 10
0.0
 20
0.0
 30
0.0
  3
*D16
  1

  0
LINE
  5
8BB1
330
8A43
100
AcDbEntity
  8
标注线
 48
5.0
370
    -2
100
AcDbLine
 10
1398.815524716133
 20
166.8495581917554
 30
0.0
 11
1400.940995132308
 21
166.8495581917554
 31
0.0
  0
LINE
  5
8BB2
330
8A43
100
AcDbEntity
  8
标注线
 48
5.0
370
    -2
100
AcDbLine
 10
1399.901399276505
 20
176.8578800556799
 30
0.0
 11
1400.940995132308
 21
176.8578800556799
 31
0.0
  0
LINE
  5
8BB3
330
8A43
100
AcDbEntity
  8
标注线
 48
5.0
370
    -2
100
AcDbLine
 10
1400.620995132308
 20
167.4995581917554
 30
0.0
 11
1400.620995132308
 21
170.9582552765144
 31
0.0
  0
LINE
  5
8BB4
330
8A43
100
AcDbEntity
  8
标注线
 48
5.0
370
    -2
100
AcDbLine
 10
1400.620995132308
 20
176.20788005568
 30
0.0
 11
1400.620995132308
 21
172.7491829709209
 31
0.0
  0
SOLID
  5
8BB5
330
8A43
100
AcDbEntity
  8
标注线
 48
5.0
100
AcDbTrace
 10
1400.512661798974
 20
167.4995581917554
 30
0.0
 11
1400.729328465641
 21
167.4995581917554
 31
0.0
 12
1400.620995132308
 22
166.8495581917554
 32
0.0
 13
1400.620995132308
 23
166.8495581917554
 33
0.0
  0
SOLID
  5
8BB6
330
8A43
100
AcDbEntity
  8
标注线
 48
5.0
100
AcDbTrace
 10
1400.512661798974
 20
176.20788005568
 30
0.0
 11
1400.729328465641
 21
176.20788005568
 31
0.0
 12
1400.620995132308
 22
176.8578800556799
 32
0.0
 13
1400.620995132308
 23
176.8578800556799
 33
0.0
  0
MTEXT
  5
8BB7
330
8A43
100
AcDbEntity
  8
标注线
 48
5.0
100
AcDbMText
 10
1400.620995132308
 20
171.8537191237179
 30
0.0
 40
0.65
 41
0.0
 71
     5
 72
     1
  1
\A1;10"
 11
0.0000000000000001
 21
1.0
 31
0.0
 73
     1
 44
1.0
1001
ACAD
1000
MTEXTBEGIN
1070
    73
1070
     1
1070
    44
1040
1.0
1070
    74
1070
     0
1000
MTEXTEND
  0
POINT
  5
8BB8
330
8A43
100
AcDbEntity
  8
DEFPOINTS
 62
     0
 48
5.0
100
AcDbPoint
 10
1397.935524716133
 20
166.8495581917554
 30
0.0
  0
POINT
  5
8BB9
330
8A43
100
AcDbEntity
  8
DEFPOINTS
 62
     0
 48
5.0
100
AcDbPoint
 10
1399.021399276505
 20
176.8578800556799
 30
0.0
  0
POINT
  5
8BBA
330
8A43
100
AcDbEntity
  8
DEFPOINTS
 62
     0
 48
5.0
100
AcDbPoint
 10
1400.620995132308
 20
176.8578800556799
 30
0.0
  0
ENDBLK
  5
8A45
330
8A43
100
AcDbEntity
  8
0
100
AcDbBlockEnd
  0
BLOCK
  5
8C0C
330
8C0B
100
AcDbEntity
  8
0
 48
5.0
100
AcDbBlockBegin
  2
*D18
 70
     1
 10
0.0
 20
0.0
 30
0.0
  3
*D18
  1

  0
LINE
  5
8C0D
330
8C0B
100
AcDbEntity
  8
标注
  6
Continuous
 62
     0
 48
5.0
370
    -2
100
AcDbLine
 10
148040.5310729608
 20
-186017.7137477661
 30
0.0
 11
148082.5775708463
 21
-186017.7137477661
 31
0.0
  0
LINE
  5
8C0E
330
8C0B
100
AcDbEntity
  8
标注
  6
Continuous
 62
     0
 48
5.0
370
    -2
100
AcDbLine
 10
148029.1150713014
 20
-186246.3562235093
 30
0.0
 11
148082.5775708463
 21
-186246.3562235093
 31
0.0
  0
LINE
  5
8C0F
330
8C0B
100
AcDbEntity
  8
标注
  6
Continuous
 62
     0
 48
5.0
370
    -2
100
AcDbLine
 10
148080.5775708463
 20
-186031.7137477661
 30
0.0
 11
148080.5775708463
 21
-186095.7928453079
 31
0.0
  0
LINE
  5
8C10
330
8C0B
100
AcDbEntity
  8
标注
  6
Continuous
 62
     0
 48
5.0
370
    -2
100
AcDbLine
 10
148080.5775708463
 20
-186232.3562235093
 30
0.0
 11
148080.5775708463
 21
-186148.7728453079
 31
0.0
  0
SOLID
  5
8C11
330
8C0B
100
AcDbEntity
  8
标注
 62
     0
 48
5.0
100
AcDbTrace
 10
148078.244237513
 20
-186031.7137477661
 30
0.0
 11
148082.9109041796
 21
-186031.7137477661
 31
0.0
 12
148080.5775708463
 22
-186017.7137477661
 32
0.0
 13
148080.5775708463
 23
-186017.7137477661
 33
0.0
  0
SOLID
  5
8C12
330
8C0B
100
AcDbEntity
  8
标注
 62
     0
 48
5.0
100
AcDbTrace
 10
148078.244237513
 20
-186232.3562235093
 30
0.0
 11
148082.9109041796
 21
-186232.3562235093
 31
0.0
 12
148080.5775708463
 22
-186246.3562235093
 32
0.0
 13
148080.5775708463
 23
-186246.3562235093
 33
0.0
  0
MTEXT
  5
8C13
330
8C0B
100
AcDbEntity
  8
标注
 62
     0
 48
5.0
100
AcDbMText
 10
148080.5775708463
 20
-186122.2828453079
 30
0.0
 40
14.0
 41
0.0
 71
     5
 72
     1
  1
228,6
 11
0.0000000000000001
 21
1.0
 31
0.0
 73
     1
 44
1.0
1001
ACAD
1000
MTEXTBEGIN
1070
    73
1070
     1
1070
    44
1040
1.0
1070
    74
1070
     0
1000
MTEXTEND
  0
POINT
  5
8C14
330
8C0B
100
AcDbEntity
  8
DEFPOINTS
 62
     0
 48
5.0
100
AcDbPoint
 10
148030.5310729608
 20
-186017.7137477661
 30
0.0
  0
POINT
  5
8C15
330
8C0B
100
AcDbEntity
  8
DEFPOINTS
 62
     0
 48
5.0
100
AcDbPoint
 10
148019.1150713014
 20
-186246.3562235093
 30
0.0
  0
POINT
  5
8C16
330
8C0B
100
AcDbEntity
  8
DEFPOINTS
 62
     0
 48
5.0
100
AcDbPoint
 10
148080.5775708463
 20
-186246.3562235093
 30
0.0
  0
ENDBLK
  5
8C17
330
8C0B
100
AcDbEntity
  8
0
 48
5.0
100
AcDbBlockEnd
  0
BLOCK
  5
8C19
330
8C18
100
AcDbEntity
  8
0
 48
5.0
100
AcDbBlockBegin
  2
*D19
 70
     1
 10
0.0
 20
0.0
 30
0.0
  3
*D19
  1

  0
LINE
  5
8C1A
330
8C18
100
AcDbEntity
  8
标注
  6
Continuous
 62
     0
 48
5.0
370
    -2
100
AcDbLine
 10
148005.6724582404
 20
-186907.8246402334
 30
0.0
 11
148005.6724582404
 21
-186985.5509105103
 31
0.0
  0
LINE
  5
8C1B
330
8C18
100
AcDbEntity
  8
标注
  6
Continuous
 62
     0
 48
5.0
370
    -2
100
AcDbLine
 10
147472.2724582404
 20
-186907.8246402335
 30
0.0
 11
147472.2724582404
 21
-186985.5509105103
 31
0.0
  0
LINE
  5
8C1C
330
8C18
100
AcDbEntity
  8
标注
  6
Continuous
 62
     0
 48
5.0
370
    -2
100
AcDbLine
 10
147991.6724582404
 20
-186983.5509105103
 30
0.0
 11
147765.5324582405
 21
-186983.5509105103
 31
0.0
  0
LINE
  5
8C1D
330
8C18
100
AcDbEntity
  8
标注
  6
Continuous
 62
     0
 48
5.0
370
    -2
100
AcDbLine
 10
147486.2724582404
 20
-186983.5509105103
 30
0.0
 11
147712.4124582404
 21
-186983.5509105103
 31
0.0
  0
SOLID
  5
8C1E
330
8C18
100
AcDbEntity
  8
标注
 62
     0
 48
5.0
100
AcDbTrace
 10
147991.6724582404
 20
-186981.217577177
 30
0.0
 11
147991.6724582404
 21
-186985.8842438436
 31
0.0
 12
148005.6724582404
 22
-186983.5509105103
 32
0.0
 13
148005.6724582404
 23
-186983.5509105103
 33
0.0
  0
SOLID
  5
8C1F
330
8C18
100
AcDbEntity
  8
标注
 62
     0
 48
5.0
100
AcDbTrace
 10
147486.2724582404
 20
-186981.217577177
 30
0.0
 11
147486.2724582404
 21
-186985.8842438436
 31
0.0
 12
147472.2724582404
 22
-186983.5509105103
 32
0.0
 13
147472.2724582404
 23
-186983.5509105103
 33
0.0
  0
MTEXT
  5
8C20
330
8C18
100
AcDbEntity
  8
标注
 62
     0
 48
5.0
100
AcDbMText
 10
147738.9724582405
 20
-186983.5509105103
 30
0.0
 40
14.0
 41
0.0
 71
     5
 72
     1
  1
533,4
 73
     1
 44
1.0
1001
ACAD
1000
MTEXTBEGIN
1070
    73
1070
     1
1070
    44
1040
1.0
1070
    74
1070
     0
1000
MTEXTEND
  0
POINT
  5
8C21
330
8C18
100
AcDbEntity
  8
DEFPOINTS
 62
     0
 48
5.0
100
AcDbPoint
 10
148005.6724582404
 20
-186897.8246402334
 30
0.0
  0
POINT
  5
8C22
330
8C18
100
AcDbEntity
  8
DEFPOINTS
 62
     0
 48
5.0
100
AcDbPoint
 10
147472.2724582404
 20
-186897.8246402335
 30
0.0
  0
POINT
  5
8C23
330
8C18
100
AcDbEntity
  8
DEFPOINTS
 62
     0
 48
5.0
100
AcDbPoint
 10
147472.2724582404
 20
-186983.5509105103
 30
0.0
  0
ENDBLK
  5
8C24
330
8C18
100
AcDbEntity
  8
0
 48
5.0
100
AcDbBlockEnd
  0
BLOCK
  5
8C26
330
8C25
100
AcDbEntity
  8
0
 48
5.0
100
AcDbBlockBegin
  2
*D20
 70
     1
 10
0.0
 20
0.0
 30
0.0
  3
*D20
  1

  0
LINE
  5
8C27
330
8C25
100
AcDbEntity
  8
标注
  6
Continuous
 62
     0
 48
5.0
370
    -2
100
AcDbLine
 10
148009.7755402297
 20
-186466.9246402334
 30
0.0
 11
148154.8536076818
 21
-186466.9246402334
 31
0.0
  0
LINE
  5
8C28
330
8C25
100
AcDbEntity
  8
标注
  6
Continuous
 62
     0
 48
5.0
370
    -2
100
AcDbLine
 10
148041.0724582404
 20
-186943.2246402336
 30
0.0
 11
148154.8536076818
 21
-186943.2246402336
 31
0.0
  0
LINE
  5
8C29
330
8C25
100
AcDbEntity
  8
标注
  6
Continuous
 62
     0
 48
5.0
370
    -2
100
AcDbLine
 10
148152.8536076818
 20
-186480.9246402334
 30
0.0
 11
148152.8536076818
 21
-186700.7996402335
 31
0.0
  0
LINE
  5
8C2A
330
8C25
100
AcDbEntity
  8
标注
  6
Continuous
 62
     0
 48
5.0
370
    -2
100
AcDbLine
 10
148152.8536076818
 20
-186929.2246402336
 30
0.0
 11
148152.8536076818
 21
-186753.8496402335
 31
0.0
  0
SOLID
  5
8C2B
330
8C25
100
AcDbEntity
  8
标注
 62
     0
 48
5.0
100
AcDbTrace
 10
148150.5202743484
 20
-186480.9246402334
 30
0.0
 11
148155.1869410151
 21
-186480.9246402334
 31
0.0
 12
148152.8536076818
 22
-186466.9246402334
 32
0.0
 13
148152.8536076818
 23
-186466.9246402334
 33
0.0
  0
SOLID
  5
8C2C
330
8C25
100
AcDbEntity
  8
标注
 62
     0
 48
5.0
100
AcDbTrace
 10
148150.5202743484
 20
-186929.2246402336
 30
0.0
 11
148155.1869410151
 21
-186929.2246402336
 31
0.0
 12
148152.8536076818
 22
-186943.2246402336
 32
0.0
 13
148152.8536076818
 23
-186943.2246402336
 33
0.0
  0
MTEXT
  5
8C2D
330
8C25
100
AcDbEntity
  8
标注
 62
     0
 48
5.0
100
AcDbMText
 10
148152.8536076818
 20
-186727.3246402335
 30
0.0
 40
14.0
 41
0.0
 71
     5
 72
     1
  1
476,3
 11
0.0000000000000001
 21
1.0
 31
0.0
 73
     1
 44
1.0
1001
ACAD
1000
MTEXTBEGIN
1070
    73
1070
     1
1070
    44
1040
1.0
1070
    74
1070
     0
1000
MTEXTEND
  0
POINT
  5
8C2E
330
8C25
100
AcDbEntity
  8
DEFPOINTS
 62
     0
 48
5.0
100
AcDbPoint
 10
147999.7755402297
 20
-186466.9246402334
 30
0.0
  0
POINT
  5
8C2F
330
8C25
100
AcDbEntity
  8
DEFPOINTS
 62
     0
 48
5.0
100
AcDbPoint
 10
148031.0724582404
 20
-186943.2246402336
 30
0.0
  0
POINT
  5
8C30
330
8C25
100
AcDbEntity
  8
DEFPOINTS
 62
     0
 48
5.0
100
AcDbPoint
 10
148152.8536076818
 20
-186943.2246402336
 30
0.0
  0
ENDBLK
  5
8C31
330
8C25
100
AcDbEntity
  8
0
 48
5.0
100
AcDbBlockEnd
  0
BLOCK
  5
8C33
330
8C32
100
AcDbEntity
  8
0
 48
5.0
100
AcDbBlockBegin
  2
*D21
 70
     1
 10
0.0
 20
0.0
 30
0.0
  3
*D21
  1

  0
LINE
  5
8C34
330
8C32
100
AcDbEntity
  8
标注
  6
Continuous
 62
     0
 48
5.0
370
    -2
100
AcDbLine
 10
148005.6724582404
 20
-186492.3246402335
 30
0.0
 11
148103.6761205326
 21
-186492.3246402335
 31
0.0
  0
LINE
  5
8C35
330
8C32
100
AcDbEntity
  8
标注
  6
Continuous
 62
     0
 48
5.0
370
    -2
100
AcDbLine
 10
147995.6724582404
 20
-186917.8246402335
 30
0.0
 11
148103.6761205326
 21
-186917.8246402335
 31
0.0
  0
LINE
  5
8C36
330
8C32
100
AcDbEntity
  8
标注
  6
Continuous
 62
     0
 48
5.0
370
    -2
100
AcDbLine
 10
148101.6761205325
 20
-186506.3246402335
 30
0.0
 11
148101.6761205325
 21
-186688.0996402335
 31
0.0
  0
LINE
  5
8C37
330
8C32
100
AcDbEntity
  8
标注
  6
Continuous
 62
     0
 48
5.0
370
    -2
100
AcDbLine
 10
148101.6761205325
 20
-186903.8246402335
 30
0.0
 11
148101.6761205325
 21
-186741.1496402335
 31
0.0
  0
SOLID
  5
8C38
330
8C32
100
AcDbEntity
  8
标注
 62
     0
 48
5.0
100
AcDbTrace
 10
148099.3427871992
 20
-186506.3246402335
 30
0.0
 11
148104.0094538659
 21
-186506.3246402335
 31
0.0
 12
148101.6761205325
 22
-186492.3246402335
 32
0.0
 13
148101.6761205325
 23
-186492.3246402335
 33
0.0
  0
SOLID
  5
8C39
330
8C32
100
AcDbEntity
  8
标注
 62
     0
 48
5.0
100
AcDbTrace
 10
148099.3427871992
 20
-186903.8246402335
 30
0.0
 11
148104.0094538659
 21
-186903.8246402335
 31
0.0
 12
148101.6761205325
 22
-186917.8246402335
 32
0.0
 13
148101.6761205325
 23
-186917.8246402335
 33
0.0
  0
MTEXT
  5
8C3A
330
8C32
100
AcDbEntity
  8
标注
 62
     0
 48
5.0
100
AcDbMText
 10
148101.6761205326
 20
-186714.6246402334
 30
0.0
 40
14.0
 41
0.0
 71
     5
 72
     1
  1
425,5
 11
0.0000000000000001
 21
1.0
 31
0.0
 73
     1
 44
1.0
1001
ACAD
1000
MTEXTBEGIN
1070
    73
1070
     1
1070
    44
1040
1.0
1070
    74
1070
     0
1000
MTEXTEND
  0
POINT
  5
8C3B
330
8C32
100
AcDbEntity
  8
DEFPOINTS
 62
     0
 48
5.0
100
AcDbPoint
 10
147995.6724582404
 20
-186492.3246402335
 30
0.0
  0
POINT
  5
8C3C
330
8C32
100
AcDbEntity
  8
DEFPOINTS
 62
     0
 48
5.0
100
AcDbPoint
 10
147985.6724582404
 20
-186917.8246402335
 30
0.0
  0
POINT
  5
8C3D
330
8C32
100
AcDbEntity
  8
DEFPOINTS
 62
     0
 48
5.0
100
AcDbPoint
 10
148101.6761205325
 20
-186917.8246402335
 30
0.0
  0
ENDBLK
  5
8C3E
330
8C32
100
AcDbEntity
  8
0
 48
5.0
100
AcDbBlockEnd
  0
BLOCK
  5
8C40
330
8C3F
100
AcDbEntity
  8
0
 48
5.0
100
AcDbBlockBegin
  2
*D22
 70
     1
 10
0.0
 20
0.0
 30
0.0
  3
*D22
  1

  0
LINE
  5
8C41
330
8C3F
100
AcDbEntity
  8
标注
  6
Continuous
 62
     0
 48
5.0
370
    -2
100
AcDbLine
 10
148031.0724582405
 20
-186931.6160220307
 30
0.0
 11
148031.0724582405
 21
-187035.1698362565
 31
0.0
  0
LINE
  5
8C42
330
8C3F
100
AcDbEntity
  8
标注
  6
Continuous
 62
     0
 48
5.0
370
    -2
100
AcDbLine
 10
147446.8724582404
 20
-186931.6160220307
 30
0.0
 11
147446.8724582404
 21
-187035.1698362565
 31
0.0
  0
LINE
  5
8C43
330
8C3F
100
AcDbEntity
  8
标注
  6
Continuous
 62
     0
 48
5.0
370
    -2
100
AcDbLine
 10
148017.0724582405
 20
-187033.1698362564
 30
0.0
 11
147765.2874582403
 21
-187033.1698362564
 31
0.0
  0
LINE
  5
8C44
330
8C3F
100
AcDbEntity
  8
标注
  6
Continuous
 62
     0
 48
5.0
370
    -2
100
AcDbLine
 10
147460.8724582404
 20
-187033.1698362564
 30
0.0
 11
147712.6574582404
 21
-187033.1698362564
 31
0.0
  0
SOLID
  5
8C45
330
8C3F
100
AcDbEntity
  8
标注
 62
     0
 48
5.0
100
AcDbTrace
 10
148017.0724582405
 20
-187030.8365029231
 30
0.0
 11
148017.0724582405
 21
-187035.5031695898
 31
0.0
 12
148031.0724582405
 22
-187033.1698362564
 32
0.0
 13
148031.0724582405
 23
-187033.1698362564
 33
0.0
  0
SOLID
  5
8C46
330
8C3F
100
AcDbEntity
  8
标注
 62
     0
 48
5.0
100
AcDbTrace
 10
147460.8724582404
 20
-187030.8365029231
 30
0.0
 11
147460.8724582404
 21
-187035.5031695898
 31
0.0
 12
147446.8724582404
 22
-187033.1698362564
 32
0.0
 13
147446.8724582404
 23
-187033.1698362564
 33
0.0
  0
MTEXT
  5
8C47
330
8C3F
100
AcDbEntity
  8
标注
 62
     0
 48
5.0
100
AcDbMText
 10
147738.9724582404
 20
-187033.1698362564
 30
0.0
 40
14.0
 41
0.0
 71
     5
 72
     1
  1
584,2
 73
     1
 44
1.0
1001
ACAD
1000
MTEXTBEGIN
1070
    73
1070
     1
1070
    44
1040
1.0
1070
    74
1070
     0
1000
MTEXTEND
  0
POINT
  5
8C48
330
8C3F
100
AcDbEntity
  8
DEFPOINTS
 62
     0
 48
5.0
100
AcDbPoint
 10
148031.0724582405
 20
-186921.6160220307
 30
0.0
  0
POINT
  5
8C49
330
8C3F
100
AcDbEntity
  8
DEFPOINTS
 62
     0
 48
5.0
100
AcDbPoint
 10
147446.8724582404
 20
-186921.6160220307
 30
0.0
  0
POINT
  5
8C4A
330
8C3F
100
AcDbEntity
  8
DEFPOINTS
 62
     0
 48
5.0
100
AcDbPoint
 10
147446.8724582404
 20
-187033.1698362564
 30
0.0
  0
ENDBLK
  5
8C4B
330
8C3F
100
AcDbEntity
  8
0
 48
5.0
100
AcDbBlockEnd
  0
BLOCK
  5
8C4D
330
8C4C
100
AcDbEntity
  8
0
 48
5.0
100
AcDbBlockBegin
  2
*D23
 70
     1
 10
0.0
 20
0.0
 30
0.0
  3
*D23
  1

  0
LINE
  5
8C4E
330
8C4C
100
AcDbEntity
  8
标注
  6
Continuous
 62
     0
 48
5.0
370
    -2
100
AcDbLine
 10
147979.4579014667
 20
-186900.0087494563
 30
0.0
 11
147992.0692234017
 21
-186906.0877756162
 31
0.0
  0
MTEXT
  5
8C4F
330
8C4C
100
AcDbEntity
  8
标注
 62
     0
 48
5.0
100
AcDbMText
 10
147963.5090832625
 20
-186892.3209524449
 30
0.0
 40
14.0
 41
0.0
 71
     5
 72
     1
  1
R10
 11
0.9008087096407869
 21
-0.4342161542772219
 31
0.0
 73
     1
 44
1.0
1001
ACAD
1000
MTEXTBEGIN
1070
    73
1070
     1
1070
    44
1040
1.0
1070
    74
1070
     0
1000
MTEXTEND
  0
SOLID
  5
8C50
330
8C4C
100
AcDbEntity
  8
标注
 62
     0
 48
5.0
100
AcDbTrace
 10
147993.0823944283
 20
-186903.985888627
 30
0.0
 11
147991.0560523751
 21
-186908.1896626054
 31
0.0
 12
148004.6805453367
 22
-186912.1668017761
 32
0.0
 13
148004.6805453367
 23
-186912.1668017761
 33
0.0
  0
POINT
  5
8C51
330
8C4C
100
AcDbEntity
  8
DEFPOINTS
 62
     0
 48
5.0
100
AcDbPoint
 10
148004.6805453367
 20
-186912.1668017761
 30
0.0
  0
POINT
  5
8C52
330
8C4C
100
AcDbEntity
  8
DEFPOINTS
 62
     0
 48
5.0
100
AcDbPoint
 10
147995.6724582404
 20
-186907.8246402334
 30
0.0
  0
ENDBLK
  5
8C53
330
8C4C
100
AcDbEntity
  8
0
 48
5.0
100
AcDbBlockEnd
  0
BLOCK
  5
8C9D
330
8C58
100
AcDbEntity
  8
0
100
AcDbBlockBegin
  2
A$C7C742BA4
 70
     0
 10
0.0
 20
0.0
 30
0.0
  3
A$C7C742BA4
  1

  0
LWPOLYLINE
  5
8C59
330
8C58
100
AcDbEntity
  8
0
100
AcDbPolyline
 90
        2
 70
     0
 43
0.0
 10
543.7999747846333
 20
861.542858521425
 10
332.401598595985
 20
1080.332198994525
  0
LWPOLYLINE
  5
8C5A
330
8C58
100
AcDbEntity
  8
0
100
AcDbPolyline
 90
        2
 70
     0
 43
0.0
 10
543.7999747846333
 20
1257.042858521425
 10
343.212221922382
 20
1149.457055437058
  0
LINE
  5
8C5B
330
8C58
100
AcDbEntity
  8
0
100
AcDbLine
 10
584.1999747846566
 20
1746.6537509888
 30
0.0
 11
561.7999747846624
 21
1746.653750988742
 31
0.0
  0
LINE
  5
8C5C
330
8C58
100
AcDbEntity
  8
虚线
 48
2.0
100
AcDbLine
 10
558.7999747846624
 20
1743.653750988742
 30
0.0
 11
558.7999747846624
 21
1529.67350000437
 31
0.0
  0
ARC
  5
8C5D
330
8C58
100
AcDbEntity
  8
虚线
 48
2.0
100
AcDbCircle
 10
548.7999747846624
 20
1529.67350000437
 30
0.0
 40
10.0
100
AcDbArc
 50
270.9198626884562
 51
0.0
  0
LINE
  5
8C5E
330
8C58
100
AcDbEntity
  8
虚线
 48
2.0
100
AcDbLine
 10
25.3999747846392
 20
1529.67349999267
 30
0.0
 11
25.3999747846392
 21
1743.653750988742
 31
0.0
  0
LINE
  5
8C5F
330
8C58
100
AcDbEntity
  8
0
100
AcDbLine
 10
22.3999747846392
 20
1746.653750988742
 30
0.0
 11
-0.0000252153840847
 21
1746.653750988742
 31
0.0
  0
DIMENSION
  5
8C60
330
8C58
100
AcDbEntity
  8
标注
 48
5.0
100
AcDbDimension
  2
*D18
 10
633.7050873904955
 20
1518.011275245575
 30
0.0
 11
633.7050873905245
 21
1642.084653446974
 31
0.0
 12
-147446.8724834558
 22
187764.3674987549
 32
0.0
 70
   128
 71
     5
 42
228.6424757432251
  3
中14+
100
AcDbAlignedDimension
 13
583.6585895050084
 23
1746.6537509888
 33
0.0
 14
572.2425878456269
 24
1518.011275245575
 34
0.0
 50
90.0
100
AcDbRotatedDimension
1001
ACAD
1000
DSTYLE
1002
{
1070
    49
1040
1.25
1070
    50
1040
1.570796326794896
1070
   345
1005
5F5E
1070
   346
1005
5F5E
1070
   347
1005
5F5E
1002
}
  0
LINE
  5
8C61
330
8C58
100
AcDbEntity
  8
0
100
AcDbLine
 10
561.7999747846624
 20
1746.653750988742
 30
0.0
 11
22.3999747846392
 21
1746.653750988742
 31
0.0
  0
LWPOLYLINE
  5
8C62
330
8C58
100
AcDbEntity
  8
0
100
AcDbPolyline
 90
        2
 70
     0
 43
0.0
 10
251.7983509729384
 20
1080.332198994874
 10
40.39997478463919
 20
861.542858521425
  0
LWPOLYLINE
  5
8C63
330
8C58
100
AcDbEntity
  8
0
100
AcDbPolyline
 90
        2
 70
     0
 43
0.0
 10
247.9001129364188
 20
1159.597781136166
 10
133.213178220205
 20
1257.042858521367
  0
LWPOLYLINE
  5
8C64
330
8C58
100
AcDbEntity
  8
中心线
 48
2.0
100
AcDbPolyline
 90
        2
 70
     0
 43
0.0
 10
292.0999747846217
 20
1197.689752175705
 10
292.0999747846217
 20
1038.414801689476
  0
LWPOLYLINE
  5
8C65
330
8C58
100
AcDbEntity
  8
中心线
 48
2.0
100
AcDbPolyline
 90
        2
 70
     0
 43
0.0
 10
360.7575315895956
 20
1122.042858521425
 10
223.442417979677
 20
1122.042858521425
  0
DIMENSION
  5
8C66
330
8C58
100
AcDbEntity
  8
标注
 48
5.0
100
AcDbDimension
  2
*D22
 10
-0.0000252153840847
 20
731.1976624984236
 30
0.0
 11
292.0999747845635
 21
731.1976624984236
 31
0.0
 12
-147446.8724834558
 22
187764.3674987549
 32
0.0
 70
   128
 71
     5
 42
584.2000000000989
  3
中14+
100
AcDbAlignedDimension
 13
584.1999747847149
 23
842.7514767241955
 33
0.0
 14
-0.0000252153840847
 24
842.7514767241955
 34
0.0
 50
180.0
100
AcDbRotatedDimension
1001
ACAD
1000
DSTYLE
1002
{
1070
    49
1040
1.25
1070
    50
1040
1.570796326794896
1070
   345
1005
5F5E
1070
   346
1005
5F5E
1070
   347
1005
5F5E
1002
}
  0
CIRCLE
  5
8C67
330
8C58
100
AcDbEntity
  8
0
100
AcDbCircle
 10
292.0999747846217
 20
1122.042858521425
 30
0.0
 40
55.00000000001331
  0
DIMENSION
  5
8C68
330
8C58
100
AcDbEntity
  8
标注
 48
5.0
100
AcDbDimension
  2
*D19
 10
25.3999747846392
 20
780.8165882445755
 30
0.0
 11
292.0999747846508
 21
780.8165882445755
 31
0.0
 12
-147446.8724834558
 22
187764.3674987549
 32
0.0
 71
     5
 42
533.3999999999941
  3
中14+
100
AcDbAlignedDimension
 13
558.7999747846334
 23
866.5428585214248
 33
0.0
 14
25.3999747846392
 24
866.5428585213957
 34
0.0
 50
180.0
100
AcDbRotatedDimension
1001
ACAD
1000
DSTYLE
1002
{
1070
    49
1040
1.25
1070
    50
1040
1.570796326794896
1070
   345
1005
5F5E
1070
   346
1005
5F5E
1070
   347
1005
5F5E
1002
}
  0
CIRCLE
  5
8C69
330
8C58
100
AcDbEntity
  8
0
100
AcDbCircle
 10
292.0999747846217
 20
1122.042858521425
 30
0.0
 40
45.5000000000077
  0
CIRCLE
  5
8C6A
330
8C58
100
AcDbEntity
  8
0
100
AcDbCircle
 10
292.0999747846217
 20
1122.042858521425
 30
0.0
 40
58.0
  0
LINE
  5
8C6B
330
8C58
100
AcDbEntity
  8
中心线
 48
2.0
100
AcDbLine
 10
292.0999747846508
 20
1492.652535592555
 30
0.0
 11
292.0999747846217
 21
1577.568627923261
 31
0.0
  0
LINE
  5
8C6C
330
8C58
100
AcDbEntity
  8
0
100
AcDbLine
 10
23.8999747846392
 20
1529.673693326855
 30
0.0
 11
23.8999747846392
 21
1743.653750988742
 31
0.0
  0
ARC
  5
8C6D
330
8C58
100
AcDbEntity
  8
0
100
AcDbCircle
 10
35.3999747846392
 20
1529.673693326855
 30
0.0
 40
11.5
100
AcDbArc
 50
180.0
 51
269.0801373765689
  0
LINE
  5
8C6E
330
8C58
100
AcDbEntity
  8
0
100
AcDbLine
 10
22.3999747846392
 20
1745.153750988742
 30
0.0
 11
-0.0000252153840847
 21
1745.153750988742
 31
0.0
  0
LINE
  5
8C6F
330
8C58
100
AcDbEntity
  8
0
100
AcDbLine
 10
584.1999747846566
 20
1745.1537509888
 30
0.0
 11
561.7999747846624
 21
1745.153750988742
 31
0.0
  0
LINE
  5
8C70
330
8C58
100
AcDbEntity
  8
0
100
AcDbLine
 10
560.2999747846625
 20
1743.653750988742
 30
0.0
 11
560.2999747846625
 21
1529.673693338496
 31
0.0
  0
ARC
  5
8C71
330
8C58
100
AcDbEntity
  8
0
100
AcDbCircle
 10
548.7999747846624
 20
1529.673693338496
 30
0.0
 40
11.5
100
AcDbArc
 50
270.9198626884562
 51
0.0
  0
LINE
  5
8C72
330
8C58
100
AcDbEntity
  8
0
100
AcDbLine
 10
584.1999747846566
 20
1746.6537509888
 30
0.0
 11
584.1999747846566
 21
1745.1537509888
 31
0.0
  0
LINE
  5
8C73
330
8C58
100
AcDbEntity
  8
0
100
AcDbLine
 10
-0.0000252153840847
 20
1746.653750988742
 30
0.0
 11
-0.0000252153840847
 21
1745.153750988742
 31
0.0
  0
ARC
  5
8C74
330
8C58
100
AcDbEntity
  8
虚线
 48
2.0
100
AcDbCircle
 10
561.7999747846624
 20
1743.653750988742
 30
0.0
 40
3.0
100
AcDbArc
 50
90.0
 51
180.0
  0
ARC
  5
8C75
330
8C58
100
AcDbEntity
  8
虚线
 48
2.0
100
AcDbCircle
 10
22.3999747846392
 20
1743.653750988742
 30
0.0
 40
3.0
100
AcDbArc
 50
0.0
 51
90.0
  0
ARC
  5
8C76
330
8C58
100
AcDbEntity
  8
0
100
AcDbCircle
 10
22.3999747846392
 20
1743.653750988742
 30
0.0
 40
1.5
100
AcDbArc
 50
0.0
 51
90.0
  0
ARC
  5
8C77
330
8C58
100
AcDbEntity
  8
0
100
AcDbCircle
 10
561.7999747846624
 20
1743.653750988742
 30
0.0
 40
1.5
100
AcDbArc
 50
90.0
 51
180.0
  0
LWPOLYLINE
  5
8C78
330
8C58
100
AcDbEntity
  8
0
100
AcDbPolyline
 90
       10
 70
     1
 43
0.0
 10
35.3999747846392
 20
846.5428585214249
 10
548.7999747846333
 20
846.5428585214249
 42
0.4142135623730951
 10
558.7999747846334
 20
856.5428585214249
 10
558.7999747846334
 20
1262.042858521454
 42
0.4142135623730951
 10
548.7999747846333
 20
1272.042858521454
 10
131.142110408342
 20
1272.042858521396
 42
0.198912367379658
 10
124.0710425964789
 20
1269.113926333259
 10
28.32890697271796
 20
1173.371790709614
 42
0.198912367379658
 10
25.39997478458099
 20
1166.300722897751
 10
25.3999747846392
 20
856.5428585214249
 42
0.4142135623730951
  0
LWPOLYLINE
  5
8C79
330
8C58
100
AcDbEntity
  8
0
100
AcDbPolyline
 90
       16
 70
     1
 43
0.0
 10
583.5156335579522
 20
841.2451427664199
 42
0.2165066515618436
 10
584.1999747847149
 20
842.7514767241955
 10
584.1999747845693
 20
1275.834240318625
 42
0.2165066515618437
 10
583.5156335578358
 20
1277.340574276401
 10
561.0651866300322
 20
1296.949192479194
 42
0.1814357539532767
 10
559.7495278567948
 20
1297.442858521419
 10
117.307377425197
 20
1297.442858521448
 42
0.198912367379658
 10
115.8931638628128
 20
1296.857072083832
 10
0.5857612222607714
 20
1181.549669443368
 42
0.198912367379658
 10
-0.0000252153549809
 20
1180.135455880983
 10
-0.0000252153840847
 20
842.7514767241955
 42
0.2165066515618436
 10
0.6843160113494378
 20
841.2451427664199
 10
23.13476293918211
 20
821.6365245635969
 42
0.1814357539532767
 10
24.45042171241949
 20
821.1428585213726
 10
559.7495278567948
 20
821.1428585214017
 42
0.1814357539532767
 10
561.0651866300322
 20
821.6365245636261
  0
LINE
  5
8C7A
330
8C58
100
AcDbEntity
  8
虚线
 48
2.0
100
AcDbLine
 10
548.9605142138316
 20
1519.674788732838
 30
0.0
 11
351.9540767502622
 21
1516.511650988774
 31
0.0
  0
LINE
  5
8C7B
330
8C58
100
AcDbEntity
  8
虚线
 48
2.0
100
AcDbLine
 10
232.2458860756305
 20
1516.511650988715
 30
0.0
 11
35.23943536684965
 21
1519.674788720935
 31
0.0
  0
ARC
  5
8C7C
330
8C58
100
AcDbEntity
  8
虚线
 48
2.0
100
AcDbCircle
 10
35.3999747846392
 20
1529.67349999267
 30
0.0
 40
10.0
100
AcDbArc
 50
180.0
 51
269.0801373765689
  0
LINE
  5
8C7D
330
8C58
100
AcDbEntity
  8
虚线
 48
2.0
100
AcDbLine
 10
232.2458860756305
 20
1516.511650988715
 30
0.0
 11
351.9540767502622
 21
1516.511650988774
 31
0.0
  0
LINE
  5
8C7E
330
8C58
100
AcDbEntity
  8
中心线
 48
2.0
100
AcDbLine
 10
292.0999747846508
 20
1474.053604823392
 30
0.0
 11
292.0999747846217
 21
1558.969697154098
 31
0.0
  0
ARC
  5
8C7F
330
8C58
100
AcDbEntity
  8
虚线
 48
2.0
100
AcDbCircle
 10
351.9540767506696
 20
1513.511650988774
 30
0.0
 40
3.0
100
AcDbArc
 50
90.00000001000517
 51
153.4349489347831
  0
ARC
  5
8C80
330
8C58
100
AcDbEntity
  8
虚线
 48
2.0
100
AcDbCircle
 10
232.2458728186612
 20
1513.511650988774
 30
0.0
 40
3.0
100
AcDbArc
 50
26.56505132473462
 51
89.99999999666494
  0
ARC
  5
8C81
330
8C58
100
AcDbEntity
  8
虚线
 48
2.0
100
AcDbCircle
 10
346.1729238016705
 20
1512.011650988774
 30
0.0
 40
1.5
100
AcDbArc
 50
270.0000000533608
 51
333.4349483531054
  0
ARC
  5
8C82
330
8C58
100
AcDbEntity
  8
虚线
 48
2.0
100
AcDbCircle
 10
238.0270257676603
 20
1512.011650988774
 30
0.0
 40
1.5
100
AcDbArc
 50
206.5650522270807
 51
269.9999999499742
  0
LINE
  5
8C83
330
8C58
100
AcDbEntity
  8
虚线
 48
2.0
100
AcDbLine
 10
236.6853849814506
 20
1511.340830596047
 30
0.0
 11
234.9291543916625
 21
1514.853291775624
 31
0.0
  0
LINE
  5
8C84
330
8C58
100
AcDbEntity
  8
虚线
 48
2.0
100
AcDbLine
 10
346.1729238016705
 20
1510.511650988774
 30
0.0
 11
337.0999747846509
 21
1510.511650988774
 31
0.0
  0
LINE
  5
8C85
330
8C58
100
AcDbEntity
  8
虚线
 48
2.0
100
AcDbLine
 10
247.0999747846509
 20
1509.011650988774
 30
0.0
 11
247.0999747846799
 21
1510.511650988774
 31
0.0
  0
LINE
  5
8C86
330
8C58
100
AcDbEntity
  8
虚线
 48
2.0
100
AcDbLine
 10
347.5145645878511
 20
1511.340830596047
 30
0.0
 11
349.2707951776683
 21
1514.853291775624
 31
0.0
  0
LINE
  5
8C87
330
8C58
100
AcDbEntity
  8
虚线
 48
2.0
100
AcDbLine
 10
337.0999747846799
 20
1509.011650988774
 30
0.0
 11
337.0999747846799
 21
1510.511650988774
 31
0.0
  0
LINE
  5
8C88
330
8C58
100
AcDbEntity
  8
虚线
 48
2.0
100
AcDbLine
 10
247.0999747846799
 20
1510.511650988774
 30
0.0
 11
238.0270257676603
 21
1510.511650988774
 31
0.0
  0
LINE
  5
8C89
330
8C58
100
AcDbEntity
  8
虚线
 48
2.0
100
AcDbLine
 10
337.0999747846799
 20
1510.511650988774
 30
0.0
 11
247.0999747846799
 21
1510.511650988774
 31
0.0
  0
LINE
  5
8C8A
330
8C58
100
AcDbEntity
  8
0
100
AcDbLine
 10
348.8562053743517
 20
1510.670010202797
 30
0.0
 11
350.6124359641399
 21
1514.182471382373
 31
0.0
  0
ARC
  5
8C8B
330
8C58
100
AcDbEntity
  8
0
100
AcDbCircle
 10
351.9540767506696
 20
1513.511650988774
 30
0.0
 40
1.5
100
AcDbArc
 50
90.00000001000517
 51
153.4349489347831
  0
LINE
  5
8C8C
330
8C58
100
AcDbEntity
  8
0
100
AcDbLine
 10
548.9845951282186
 20
1518.175175376236
 30
0.0
 11
351.9540767502622
 21
1515.011650988774
 31
0.0
  0
ARC
  5
8C8D
330
8C58
100
AcDbEntity
  8
0
100
AcDbCircle
 10
346.1729238016705
 20
1512.011650988774
 30
0.0
 40
3.0
100
AcDbArc
 50
270.0000000533608
 51
333.4349483531054
  0
LINE
  5
8C8E
330
8C58
100
AcDbEntity
  8
0
100
AcDbLine
 10
346.1729238016705
 20
1509.011650988774
 30
0.0
 11
337.0999747846509
 21
1509.011650988774
 31
0.0
  0
LINE
  5
8C8F
330
8C58
100
AcDbEntity
  8
0
100
AcDbLine
 10
337.0999747846799
 20
1509.011650988774
 30
0.0
 11
247.0999747846799
 21
1509.011650988774
 31
0.0
  0
LINE
  5
8C90
330
8C58
100
AcDbEntity
  8
0
100
AcDbLine
 10
247.0999747846509
 20
1509.011650988774
 30
0.0
 11
238.0270257676603
 21
1509.011650988774
 31
0.0
  0
ARC
  5
8C91
330
8C58
100
AcDbEntity
  8
0
100
AcDbCircle
 10
238.0270257676603
 20
1512.011650988774
 30
0.0
 40
3.0
100
AcDbArc
 50
206.5650522270807
 51
269.9999999499742
  0
LINE
  5
8C92
330
8C58
100
AcDbEntity
  8
0
100
AcDbLine
 10
235.34374419495
 20
1510.670010202797
 30
0.0
 11
233.5875136051618
 21
1514.182471382373
 31
0.0
  0
ARC
  5
8C93
330
8C58
100
AcDbEntity
  8
0
100
AcDbCircle
 10
232.2458728186612
 20
1513.511650988774
 30
0.0
 40
1.5
100
AcDbArc
 50
26.56505132473462
 51
89.99999999666494
  0
LINE
  5
8C94
330
8C58
100
AcDbEntity
  8
0
100
AcDbLine
 10
232.2458860756305
 20
1515.011650988715
 30
0.0
 11
35.21535445417976
 21
1518.175175364362
 31
0.0
  0
DIMENSION
  5
8C95
330
8C58
100
AcDbEntity
  8
标注
 48
5.0
100
AcDbDimension
  2
*D23
 10
548.7999747846333
 20
856.542858521454
 30
0.0
 11
516.6365998067194
 21
872.0465463100117
 31
0.0
 12
-147446.8724834558
 22
187764.3674987549
 32
0.0
 70
   132
 71
     5
 42
9.999999999796273
  3
中14+
100
AcDbRadialDimension
 15
557.8080618808744
 25
852.2006969787762
 35
0.0
 40
0.0
1001
ACAD
1000
DSTYLE
1002
{
1070
    49
1040
1.25
1070
    50
1040
1.570796326794896
1070
   345
1005
5F5E
1070
   346
1005
5F5E
1070
   347
1005
5F5E
1002
}
1001
ACAD_DSTYLE_DIMRADIAL_EXTENSION
1070
   387
1070
     1
1070
   388
1040
4.712388980384689
1070
   390
1040
0.0
  0
DIMENSION
  5
8C96
330
8C58
100
AcDbEntity
  8
标注
 48
5.0
100
AcDbDimension
  2
*D20
 10
705.9811242260039
 20
821.1428585213143
 30
0.0
 11
705.9811242260329
 21
1037.042858521395
 31
0.0
 12
-147446.8724834558
 22
187764.3674987549
 32
0.0
 70
   128
 71
     5
 42
476.3000000001047
  3
中14+
100
AcDbAlignedDimension
 13
552.9030567738809
 23
1297.442858521419
 33
0.0
 14
584.1999747846275
 24
821.1428585213143
 34
0.0
 50
90.0
100
AcDbRotatedDimension
1001
ACAD
1000
DSTYLE
1002
{
1070
    49
1040
1.25
1070
    50
1040
1.570796326794896
1070
   345
1005
5F5E
1070
   346
1005
5F5E
1070
   347
1005
5F5E
1002
}
  0
DIMENSION
  5
8C97
330
8C58
100
AcDbEntity
  8
标注
 48
5.0
100
AcDbDimension
  2
*D21
 10
654.8036370767513
 20
846.5428585213667
 30
0.0
 11
654.8036370767804
 21
1049.742858521407
 31
0.0
 12
-147446.8724834558
 22
187764.3674987549
 32
0.0
 70
   128
 71
     5
 42
425.4999999999999
  3
中14+
100
AcDbAlignedDimension
 13
548.7999747846333
 23
1272.042858521367
 33
0.0
 14
538.7999747846042
 24
846.5428585213667
 34
0.0
 50
90.0
100
AcDbRotatedDimension
1001
ACAD
1000
DSTYLE
1002
{
1070
    49
1040
1.25
1070
    50
1040
1.570796326794896
1070
   345
1005
5F5E
1070
   346
1005
5F5E
1070
   347
1005
5F5E
1002
}
  0
LINE
  5
8C98
330
8C58
100
AcDbEntity
  8
0
100
AcDbLine
 10
22.3999747846392
 20
1745.153750988742
 30
0.0
 11
561.7999747846624
 21
1745.153750988742
 31
0.0
  0
LINE
  5
8C99
330
8C58
100
AcDbEntity
  8
0
100
AcDbLine
 10
232.2458728186612
 20
1515.011650988774
 30
0.0
 11
351.9540767506696
 21
1515.011650988774
 31
0.0
  0
LWPOLYLINE
  5
8C9A
330
8C58
100
AcDbEntity
  8
0
100
AcDbPolyline
 90
       10
 70
     1
 43
0.0
 10
35.3999747846392
 20
0.0000035149860196
 10
548.7999747846333
 20
0.0000035149860196
 42
0.4142135623730951
 10
560.7999747846333
 20
12.00000351498602
 10
560.7999747846333
 20
417.5000035150151
 42
0.4142135623730951
 10
548.7999747846333
 20
429.5000035150151
 10
131.142110408342
 20
429.5000035149569
 42
0.1989123673797996
 10
122.6568290340947
 20
425.9852848892042
 10
26.91469341033371
 20
330.2431492655596
 42
0.1989123673797991
 10
23.39997478458099
 20
321.7578678913123
 10
23.3999747846392
 20
12.00000351498602
 42
0.4142135623730951
  0
ENDBLK
  5
8C9E
330
8C58
100
AcDbEntity
  8
0
100
AcDbBlockEnd
  0
BLOCK
  5
8CA0
330
8C9F
100
AcDbEntity
  8
0
 48
5.0
100
AcDbBlockBegin
  2
*D25
 70
     1
 10
0.0
 20
0.0
 30
0.0
  3
*D25
  1

  0
LINE
  5
8CA1
330
8C9F
100
AcDbEntity
  8
标注
  6
Continuous
 62
     0
 48
5.0
370
    -2
100
AcDbLine
 10
148955.5339205086
 20
-187703.026371712
 30
0.0
 11
148949.5042511303
 21
-187703.026371712
 31
0.0
  0
LINE
  5
8CA2
330
8C9F
100
AcDbEntity
  8
标注
  6
Continuous
 62
     0
 48
5.0
370
    -2
100
AcDbLine
 10
148955.0844725233
 20
-187712.028025982
 30
0.0
 11
148949.5042511303
 21
-187712.028025982
 31
0.0
  0
LINE
  5
8CA3
330
8C9F
100
AcDbEntity
  8
标注
  6
Continuous
 62
     0
 48
5.0
370
    -2
100
AcDbLine
 10
148947.5042511303
 20
-187689.026371712
 30
0.0
 11
148947.5042511303
 21
-187675.026371712
 31
0.0
  0
LINE
  5
8CA4
330
8C9F
100
AcDbEntity
  8
标注
  6
Continuous
 62
     0
 48
5.0
370
    -2
100
AcDbLine
 10
148947.5042511303
 20
-187726.028025982
 30
0.0
 11
148947.5042511303
 21
-187740.028025982
 31
0.0
  0
LINE
  5
8CA5
330
8C9F
100
AcDbEntity
  8
标注
  6
Continuous
 62
     0
 48
5.0
370
    -2
100
AcDbLine
 10
148947.5042511303
 20
-187703.026371712
 30
0.0
 11
148947.5042511303
 21
-187712.028025982
 31
0.0
  0
SOLID
  5
8CA6
330
8C9F
100
AcDbEntity
  8
标注
 62
     0
 48
5.0
100
AcDbTrace
 10
148945.170917797
 20
-187689.026371712
 30
0.0
 11
148949.8375844637
 21
-187689.026371712
 31
0.0
 12
148947.5042511303
 22
-187703.026371712
 32
0.0
 13
148947.5042511303
 23
-187703.026371712
 33
0.0
  0
SOLID
  5
8CA7
330
8C9F
100
AcDbEntity
  8
标注
 62
     0
 48
5.0
100
AcDbTrace
 10
148945.170917797
 20
-187726.028025982
 30
0.0
 11
148949.8375844637
 21
-187726.028025982
 31
0.0
 12
148947.5042511303
 22
-187712.028025982
 32
0.0
 13
148947.5042511303
 23
-187712.028025982
 33
0.0
  0
MTEXT
  5
8CA8
330
8C9F
100
AcDbEntity
  8
标注
 62
     0
 48
5.0
100
AcDbMText
 10
148947.5042511303
 20
-187707.527198847
 30
0.0
 40
14.0
 41
0.0
 71
     5
 72
     1
  1
9
 11
0.0000000000000001
 21
1.0
 31
0.0
 73
     1
 44
1.0
1001
ACAD
1000
MTEXTBEGIN
1070
    73
1070
     1
1070
    44
1040
1.0
1070
    74
1070
     0
1000
MTEXTEND
  0
POINT
  5
8CA9
330
8C9F
100
AcDbEntity
  8
DEFPOINTS
 62
     0
 48
5.0
100
AcDbPoint
 10
148945.5339205086
 20
-187703.026371712
 30
0.0
  0
POINT
  5
8CAA
330
8C9F
100
AcDbEntity
  8
DEFPOINTS
 62
     0
 48
5.0
100
AcDbPoint
 10
148945.0844725233
 20
-187712.028025982
 30
0.0
  0
POINT
  5
8CAB
330
8C9F
100
AcDbEntity
  8
DEFPOINTS
 62
     0
 48
5.0
100
AcDbPoint
 10
148947.5042511303
 20
-187712.028025982
 30
0.0
  0
ENDBLK
  5
8CAC
330
8C9F
100
AcDbEntity
  8
0
 48
5.0
100
AcDbBlockEnd
  0
BLOCK
  5
8CAE
330
8CAD
100
AcDbEntity
  8
0
 48
5.0
100
AcDbBlockBegin
  2
*D26
 70
     1
 10
0.0
 20
0.0
 30
0.0
  3
*D26
  1

  0
LINE
  5
8CAF
330
8CAD
100
AcDbEntity
  8
标注
  6
Continuous
 62
     0
 48
5.0
370
    -2
100
AcDbLine
 10
148945.555234847
 20
-187748.6130042498
 30
0.0
 11
148945.555234847
 21
-187745.0048779158
 31
0.0
  0
LINE
  5
8CB0
330
8CAD
100
AcDbEntity
  8
标注
  6
Continuous
 62
     0
 48
5.0
370
    -2
100
AcDbLine
 10
148922.5552808471
 20
-187748.6130042498
 30
0.0
 11
148922.5552808471
 21
-187745.0048779158
 31
0.0
  0
LINE
  5
8CB1
330
8CAD
100
AcDbEntity
  8
标注
  6
Continuous
 62
     0
 48
5.0
370
    -2
100
AcDbLine
 10
148959.555234847
 20
-187743.0048779158
 30
0.0
 11
148973.555234847
 21
-187743.0048779158
 31
0.0
  0
LINE
  5
8CB2
330
8CAD
100
AcDbEntity
  8
标注
  6
Continuous
 62
     0
 48
5.0
370
    -2
100
AcDbLine
 10
148908.5552808471
 20
-187743.0048779158
 30
0.0
 11
148894.5552808471
 21
-187743.0048779158
 31
0.0
  0
LINE
  5
8CB3
330
8CAD
100
AcDbEntity
  8
标注
  6
Continuous
 62
     0
 48
5.0
370
    -2
100
AcDbLine
 10
148945.555234847
 20
-187743.0048779158
 30
0.0
 11
148922.5552808471
 21
-187743.0048779158
 31
0.0
  0
SOLID
  5
8CB4
330
8CAD
100
AcDbEntity
  8
标注
 62
     0
 48
5.0
100
AcDbTrace
 10
148959.555234847
 20
-187740.6715445825
 30
0.0
 11
148959.555234847
 21
-187745.3382112492
 31
0.0
 12
148945.555234847
 22
-187743.0048779158
 32
0.0
 13
148945.555234847
 23
-187743.0048779158
 33
0.0
  0
SOLID
  5
8CB5
330
8CAD
100
AcDbEntity
  8
标注
 62
     0
 48
5.0
100
AcDbTrace
 10
148908.5552808471
 20
-187740.6715445825
 30
0.0
 11
148908.5552808471
 21
-187745.3382112492
 31
0.0
 12
148922.5552808471
 22
-187743.0048779158
 32
0.0
 13
148922.5552808471
 23
-187743.0048779158
 33
0.0
  0
MTEXT
  5
8CB6
330
8CAD
100
AcDbEntity
  8
标注
 62
     0
 48
5.0
100
AcDbMText
 10
148934.0552578471
 20
-187743.0048779158
 30
0.0
 40
14.0
 41
0.0
 71
     5
 72
     1
  1
23
 73
     1
 44
1.0
1001
ACAD
1000
MTEXTBEGIN
1070
    73
1070
     1
1070
    44
1040
1.0
1070
    74
1070
     0
1000
MTEXTEND
  0
POINT
  5
8CB7
330
8CAD
100
AcDbEntity
  8
DEFPOINTS
 62
     0
 48
5.0
100
AcDbPoint
 10
148945.555234847
 20
-187738.6130042498
 30
0.0
  0
POINT
  5
8CB8
330
8CAD
100
AcDbEntity
  8
DEFPOINTS
 62
     0
 48
5.0
100
AcDbPoint
 10
148922.5552808471
 20
-187738.6130042498
 30
0.0
  0
POINT
  5
8CB9
330
8CAD
100
AcDbEntity
  8
DEFPOINTS
 62
     0
 48
5.0
100
AcDbPoint
 10
148922.5552808471
 20
-187743.0048779158
 30
0.0
  0
ENDBLK
  5
8CBA
330
8CAD
100
AcDbEntity
  8
0
 48
5.0
100
AcDbBlockEnd
  0
BLOCK
  5
8CBC
330
8CBB
100
AcDbEntity
  8
0
 48
5.0
100
AcDbBlockBegin
  2
*D27
 70
     1
 10
0.0
 20
0.0
 30
0.0
  3
*D27
  1

  0
LINE
  5
8CBD
330
8CBB
100
AcDbEntity
  8
标注
  6
Continuous
 62
     0
 48
5.0
370
    -2
100
AcDbLine
 10
148944.555236847
 20
-187747.6763375484
 30
0.0
 11
148944.555236847
 21
-187743.0513808092
 31
0.0
  0
LINE
  5
8CBE
330
8CBB
100
AcDbEntity
  8
标注
  6
Continuous
 62
     0
 48
5.0
370
    -2
100
AcDbLine
 10
148923.555278847
 20
-187747.6763375484
 30
0.0
 11
148923.555278847
 21
-187743.0513808092
 31
0.0
  0
LINE
  5
8CBF
330
8CBB
100
AcDbEntity
  8
标注
  6
Continuous
 62
     0
 48
5.0
370
    -2
100
AcDbLine
 10
148958.555236847
 20
-187741.0513808092
 30
0.0
 11
148972.555236847
 21
-187741.0513808092
 31
0.0
  0
LINE
  5
8CC0
330
8CBB
100
AcDbEntity
  8
标注
  6
Continuous
 62
     0
 48
5.0
370
    -2
100
AcDbLine
 10
148909.5552788471
 20
-187741.0513808092
 30
0.0
 11
148895.555278847
 21
-187741.0513808092
 31
0.0
  0
LINE
  5
8CC1
330
8CBB
100
AcDbEntity
  8
标注
  6
Continuous
 62
     0
 48
5.0
370
    -2
100
AcDbLine
 10
148944.555236847
 20
-187741.0513808092
 30
0.0
 11
148923.555278847
 21
-187741.0513808092
 31
0.0
  0
SOLID
  5
8CC2
330
8CBB
100
AcDbEntity
  8
标注
 62
     0
 48
5.0
100
AcDbTrace
 10
148958.555236847
 20
-187738.7180474759
 30
0.0
 11
148958.555236847
 21
-187743.3847141426
 31
0.0
 12
148944.555236847
 22
-187741.0513808092
 32
0.0
 13
148944.555236847
 23
-187741.0513808092
 33
0.0
  0
SOLID
  5
8CC3
330
8CBB
100
AcDbEntity
  8
标注
 62
     0
 48
5.0
100
AcDbTrace
 10
148909.5552788471
 20
-187738.7180474759
 30
0.0
 11
148909.5552788471
 21
-187743.3847141426
 31
0.0
 12
148923.555278847
 22
-187741.0513808092
 32
0.0
 13
148923.555278847
 23
-187741.0513808092
 33
0.0
  0
MTEXT
  5
8CC4
330
8CBB
100
AcDbEntity
  8
标注
 62
     0
 48
5.0
100
AcDbMText
 10
148882.960278847
 20
-187741.0513808092
 30
0.0
 40
14.0
 41
0.0
 71
     5
 72
     1
  1
21
 73
     1
 44
1.0
1001
ACAD
1000
MTEXTBEGIN
1070
    73
1070
     1
1070
    44
1040
1.0
1070
    74
1070
     0
1000
MTEXTEND
  0
POINT
  5
8CC5
330
8CBB
100
AcDbEntity
  8
DEFPOINTS
 62
     0
 48
5.0
100
AcDbPoint
 10
148944.555236847
 20
-187737.6763375484
 30
0.0
  0
POINT
  5
8CC6
330
8CBB
100
AcDbEntity
  8
DEFPOINTS
 62
     0
 48
5.0
100
AcDbPoint
 10
148923.555278847
 20
-187737.6763375484
 30
0.0
  0
POINT
  5
8CC7
330
8CBB
100
AcDbEntity
  8
DEFPOINTS
 62
     0
 48
5.0
100
AcDbPoint
 10
148923.555278847
 20
-187741.0513808092
 30
0.0
  0
ENDBLK
  5
8CC8
330
8CBB
100
AcDbEntity
  8
0
 48
5.0
100
AcDbBlockEnd
  0
BLOCK
  5
8CCA
330
8CC9
100
AcDbEntity
  8
0
 48
5.0
100
AcDbBlockBegin
  2
*D28
 70
     1
 10
0.0
 20
0.0
 30
0.0
  3
*D28
  1

  0
LINE
  5
8CCB
330
8CC9
100
AcDbEntity
  8
标注
  6
Continuous
 62
     0
 48
5.0
370
    -2
100
AcDbLine
 10
148919.2935413656
 20
-187726.0829361295
 30
0.0
 11
148931.9048633008
 21
-187732.161962289
 31
0.0
  0
MTEXT
  5
8CCC
330
8CC9
100
AcDbEntity
  8
标注
 62
     0
 48
5.0
100
AcDbMText
 10
148899.1829869225
 20
-187716.3890604861
 30
0.0
 40
14.0
 41
0.0
 71
     5
 72
     1
  1
R0,4
 11
0.9008087096578703
 21
-0.4342161542417816
 31
0.0
 73
     1
 44
1.0
1001
ACAD
1000
MTEXTBEGIN
1070
    73
1070
     1
1070
    44
1040
1.0
1070
    74
1070
     0
1000
MTEXTEND
  0
SOLID
  5
8CCD
330
8CC9
100
AcDbEntity
  8
标注
 62
     0
 48
5.0
100
AcDbTrace
 10
148932.9180343274
 20
-187730.0600752997
 30
0.0
 11
148930.8916922742
 21
-187734.2638492782
 31
0.0
 12
148944.516185236
 22
-187738.2409884483
 32
0.0
 13
148944.516185236
 23
-187738.2409884483
 33
0.0
  0
POINT
  5
8CCE
330
8CC9
100
AcDbEntity
  8
DEFPOINTS
 62
     0
 48
5.0
100
AcDbPoint
 10
148944.516185236
 20
-187738.2409884483
 30
0.0
  0
POINT
  5
8CCF
330
8CC9
100
AcDbEntity
  8
DEFPOINTS
 62
     0
 48
5.0
100
AcDbPoint
 10
148944.1615368471
 20
-187738.0700375484
 30
0.0
  0
ENDBLK
  5
8CD0
330
8CC9
100
AcDbEntity
  8
0
 48
5.0
100
AcDbBlockEnd
  0
BLOCK
  5
8CD2
330
8CD1
100
AcDbEntity
  8
0
 48
5.0
100
AcDbBlockBegin
  2
*D29
 70
     1
 10
0.0
 20
0.0
 30
0.0
  3
*D29
  1

  0
LINE
  5
8CD3
330
8CD1
100
AcDbEntity
  8
标注
  6
Continuous
 62
     0
 48
5.0
370
    -2
100
AcDbLine
 10
148954.323075185
 20
-187720.7118045484
 30
0.0
 11
148952.3497587005
 21
-187720.7118045484
 31
0.0
  0
LINE
  5
8CD4
330
8CD1
100
AcDbEntity
  8
标注
  6
Continuous
 62
     0
 48
5.0
370
    -2
100
AcDbLine
 10
148955.5552348471
 20
-187739.4637355484
 30
0.0
 11
148952.3497587005
 21
-187739.4637355484
 31
0.0
  0
LINE
  5
8CD5
330
8CD1
100
AcDbEntity
  8
标注
  6
Continuous
 62
     0
 48
5.0
370
    -2
100
AcDbLine
 10
148950.3497587005
 20
-187706.7118045484
 30
0.0
 11
148950.3497587005
 21
-187692.7118045484
 31
0.0
  0
LINE
  5
8CD6
330
8CD1
100
AcDbEntity
  8
标注
  6
Continuous
 62
     0
 48
5.0
370
    -2
100
AcDbLine
 10
148950.3497587005
 20
-187753.4637355484
 30
0.0
 11
148950.3497587005
 21
-187767.4637355484
 31
0.0
  0
LINE
  5
8CD7
330
8CD1
100
AcDbEntity
  8
标注
  6
Continuous
 62
     0
 48
5.0
370
    -2
100
AcDbLine
 10
148950.3497587005
 20
-187720.7118045484
 30
0.0
 11
148950.3497587005
 21
-187739.4637355484
 31
0.0
  0
SOLID
  5
8CD8
330
8CD1
100
AcDbEntity
  8
标注
 62
     0
 48
5.0
100
AcDbTrace
 10
148948.0164253672
 20
-187706.7118045484
 30
0.0
 11
148952.6830920339
 21
-187706.7118045484
 31
0.0
 12
148950.3497587005
 22
-187720.7118045484
 32
0.0
 13
148950.3497587005
 23
-187720.7118045484
 33
0.0
  0
SOLID
  5
8CD9
330
8CD1
100
AcDbEntity
  8
标注
 62
     0
 48
5.0
100
AcDbTrace
 10
148948.0164253672
 20
-187753.4637355484
 30
0.0
 11
148952.6830920339
 21
-187753.4637355484
 31
0.0
 12
148950.3497587005
 22
-187739.4637355484
 32
0.0
 13
148950.3497587005
 23
-187739.4637355484
 33
0.0
  0
MTEXT
  5
8CDA
330
8CD1
100
AcDbEntity
  8
标注
 62
     0
 48
5.0
100
AcDbMText
 10
148950.3497587006
 20
-187730.0877700484
 30
0.0
 40
14.0
 41
0.0
 71
     5
 72
     1
  1
18,8
 11
0.0000000000000001
 21
1.0
 31
0.0
 73
     1
 44
1.0
1001
ACAD
1000
MTEXTBEGIN
1070
    73
1070
     1
1070
    44
1040
1.0
1070
    74
1070
     0
1000
MTEXTEND
  0
POINT
  5
8CDB
330
8CD1
100
AcDbEntity
  8
DEFPOINTS
 62
     0
 48
5.0
100
AcDbPoint
 10
148944.323075185
 20
-187720.7118045484
 30
0.0
  0
POINT
  5
8CDC
330
8CD1
100
AcDbEntity
  8
DEFPOINTS
 62
     0
 48
5.0
100
AcDbPoint
 10
148945.555234847
 20
-187739.4637355484
 30
0.0
  0
POINT
  5
8CDD
330
8CD1
100
AcDbEntity
  8
DEFPOINTS
 62
     0
 48
5.0
100
AcDbPoint
 10
148950.3497587005
 20
-187739.4637355484
 30
0.0
  0
ENDBLK
  5
8CDE
330
8CD1
100
AcDbEntity
  8
0
 48
5.0
100
AcDbBlockEnd
  0
BLOCK
  5
8CE0
330
8CDF
100
AcDbEntity
  8
0
 48
5.0
100
AcDbBlockBegin
  2
*D30
 70
     1
 10
0.0
 20
0.0
 30
0.0
  3
*D30
  1

  0
LINE
  5
8CE1
330
8CDF
100
AcDbEntity
  8
标注
  6
Continuous
 62
     0
 48
5.0
370
    -2
100
AcDbLine
 10
148954.1615368471
 20
-187721.7118025484
 30
0.0
 11
148950.3349010315
 21
-187721.7118025484
 31
0.0
  0
LINE
  5
8CE2
330
8CDF
100
AcDbEntity
  8
标注
  6
Continuous
 62
     0
 48
5.0
370
    -2
100
AcDbLine
 10
148953.767836847
 20
-187738.4637375484
 30
0.0
 11
148950.3349010315
 21
-187738.4637375484
 31
0.0
  0
LINE
  5
8CE3
330
8CDF
100
AcDbEntity
  8
标注
  6
Continuous
 62
     0
 48
5.0
370
    -2
100
AcDbLine
 10
148948.3349010315
 20
-187707.7118025484
 30
0.0
 11
148948.3349010315
 21
-187693.7118025484
 31
0.0
  0
LINE
  5
8CE4
330
8CDF
100
AcDbEntity
  8
标注
  6
Continuous
 62
     0
 48
5.0
370
    -2
100
AcDbLine
 10
148948.3349010315
 20
-187752.4637375484
 30
0.0
 11
148948.3349010315
 21
-187766.4637375484
 31
0.0
  0
LINE
  5
8CE5
330
8CDF
100
AcDbEntity
  8
标注
  6
Continuous
 62
     0
 48
5.0
370
    -2
100
AcDbLine
 10
148948.3349010315
 20
-187721.7118025484
 30
0.0
 11
148948.3349010315
 21
-187738.4637375484
 31
0.0
  0
SOLID
  5
8CE6
330
8CDF
100
AcDbEntity
  8
标注
 62
     0
 48
5.0
100
AcDbTrace
 10
148946.0015676981
 20
-187707.7118025484
 30
0.0
 11
148950.6682343648
 21
-187707.7118025484
 31
0.0
 12
148948.3349010315
 22
-187721.7118025484
 32
0.0
 13
148948.3349010315
 23
-187721.7118025484
 33
0.0
  0
SOLID
  5
8CE7
330
8CDF
100
AcDbEntity
  8
标注
 62
     0
 48
5.0
100
AcDbTrace
 10
148946.0015676981
 20
-187752.4637375484
 30
0.0
 11
148950.6682343648
 21
-187752.4637375484
 31
0.0
 12
148948.3349010315
 22
-187738.4637375484
 32
0.0
 13
148948.3349010315
 23
-187738.4637375484
 33
0.0
  0
MTEXT
  5
8CE8
330
8CDF
100
AcDbEntity
  8
标注
 62
     0
 48
5.0
100
AcDbMText
 10
148948.3349010315
 20
-187730.0877700484
 30
0.0
 40
14.0
 41
0.0
 71
     5
 72
     1
  1
16,8
 11
0.0000000000000001
 21
1.0
 31
0.0
 73
     1
 44
1.0
1001
ACAD
1000
MTEXTBEGIN
1070
    73
1070
     1
1070
    44
1040
1.0
1070
    74
1070
     0
1000
MTEXTEND
  0
POINT
  5
8CE9
330
8CDF
100
AcDbEntity
  8
DEFPOINTS
 62
     0
 48
5.0
100
AcDbPoint
 10
148944.1615368471
 20
-187721.7118025484
 30
0.0
  0
POINT
  5
8CEA
330
8CDF
100
AcDbEntity
  8
DEFPOINTS
 62
     0
 48
5.0
100
AcDbPoint
 10
148943.767836847
 20
-187738.4637375484
 30
0.0
  0
POINT
  5
8CEB
330
8CDF
100
AcDbEntity
  8
DEFPOINTS
 62
     0
 48
5.0
100
AcDbPoint
 10
148948.3349010315
 20
-187738.4637375484
 30
0.0
  0
ENDBLK
  5
8CEC
330
8CDF
100
AcDbEntity
  8
0
 48
5.0
100
AcDbBlockEnd
  0
BLOCK
  5
8D78
330
8D77
100
AcDbEntity
  8
0
100
AcDbBlockBegin
  2
*D32
 70
     1
 10
0.0
 20
0.0
 30
0.0
  3
*D32
  1

  0
LINE
  5
8E3D
330
8D77
100
AcDbEntity
  8
标注线
 48
5.0
370
    -2
100
AcDbLine
 10
1487.756604715316
 20
180.5292409130787
 30
0.0
 11
1489.166935337072
 21
180.5292409130787
 31
0.0
  0
LINE
  5
8E3E
330
8D77
100
AcDbEntity
  8
标注线
 48
5.0
370
    -2
100
AcDbLine
 10
1487.307156729985
 20
171.527586643061
 30
0.0
 11
1489.166935337072
 21
171.527586643061
 31
0.0
  0
LINE
  5
8E3F
330
8D77
100
AcDbEntity
  8
标注线
 48
5.0
370
    -2
100
AcDbLine
 10
1488.846935337072
 20
179.8792409130787
 30
0.0
 11
1488.846935337072
 21
176.7019642555596
 31
0.0
  0
LINE
  5
8E40
330
8D77
100
AcDbEntity
  8
标注线
 48
5.0
370
    -2
100
AcDbLine
 10
1488.846935337072
 20
172.177586643061
 30
0.0
 11
1488.846935337072
 21
175.3548633005801
 31
0.0
  0
MTEXT
  5
8E41
330
8D77
100
AcDbEntity
  8
标注线
 48
5.0
100
AcDbMText
 10
1488.846935337072
 20
176.0284137780701
 30
0.0
 40
0.65
 41
0.0
 71
     5
 72
     1
  1
\A1;9"
 11
0.0000000000000001
 21
1.0
 31
0.0
 73
     1
 44
1.0
1001
ACAD
1000
MTEXTBEGIN
1070
    73
1070
     1
1070
    44
1040
1.0
1070
    74
1070
     0
1000
MTEXTEND
  0
SOLID
  5
8E42
330
8D77
100
AcDbEntity
  8
标注线
 48
5.0
100
AcDbTrace
 10
1488.738602003738
 20
179.8792409130787
 30
0.0
 11
1488.955268670405
 21
179.8792409130787
 31
0.0
 12
1488.846935337072
 22
180.5292409130787
 32
0.0
 13
1488.846935337072
 23
180.5292409130787
 33
0.0
  0
SOLID
  5
8E43
330
8D77
100
AcDbEntity
  8
标注线
 48
5.0
100
AcDbTrace
 10
1488.738602003738
 20
172.177586643061
 30
0.0
 11
1488.955268670405
 21
172.177586643061
 31
0.0
 12
1488.846935337072
 22
171.527586643061
 32
0.0
 13
1488.846935337072
 23
171.527586643061
 33
0.0
  0
POINT
  5
8E44
330
8D77
100
AcDbEntity
  8
DEFPOINTS
 62
     0
 48
5.0
100
AcDbPoint
 10
1486.876604715316
 20
180.5292409130787
 30
0.0
  0
POINT
  5
8E45
330
8D77
100
AcDbEntity
  8
DEFPOINTS
 62
     0
 48
5.0
100
AcDbPoint
 10
1486.427156729985
 20
171.527586643061
 30
0.0
  0
POINT
  5
8E46
330
8D77
100
AcDbEntity
  8
DEFPOINTS
 62
     0
 48
5.0
100
AcDbPoint
 10
1488.846935337072
 20
171.527586643061
 30
0.0
  0
ENDBLK
  5
8D79
330
8D77
100
AcDbEntity
  8
0
100
AcDbBlockEnd
  0
BLOCK
  5
8D86
330
8D85
100
AcDbEntity
  8
0
100
AcDbBlockBegin
  2
*D33
 70
     1
 10
0.0
 20
0.0
 30
0.0
  3
*D33
  1

  0
LINE
  5
8E1F
330
8D85
100
AcDbEntity
  8
标注线
 48
5.0
370
    -2
100
AcDbLine
 10
1486.897919053776
 20
144.0626083752777
 30
0.0
 11
1486.897919053776
 21
140.2307347092215
 31
0.0
  0
LINE
  5
8E20
330
8D85
100
AcDbEntity
  8
标注线
 48
5.0
370
    -2
100
AcDbLine
 10
1463.897965053778
 20
144.0626083752777
 30
0.0
 11
1463.897965053778
 21
140.2307347092215
 31
0.0
  0
LINE
  5
8E21
330
8D85
100
AcDbEntity
  8
标注线
 48
5.0
370
    -2
100
AcDbLine
 10
1486.247919053776
 20
140.5507347092215
 30
0.0
 11
1476.3295416445
 21
140.5507347092215
 31
0.0
  0
LINE
  5
8E22
330
8D85
100
AcDbEntity
  8
标注线
 48
5.0
370
    -2
100
AcDbLine
 10
1464.547965053778
 20
140.5507347092215
 30
0.0
 11
1474.466342463054
 21
140.5507347092215
 31
0.0
  0
MTEXT
  5
8E23
330
8D85
100
AcDbEntity
  8
标注线
 48
5.0
100
AcDbMText
 10
1475.397942053777
 20
140.5507347092215
 30
0.0
 40
0.65
 41
0.0
 71
     5
 72
     1
  1
\A1;23"
 73
     1
 44
1.0
1001
ACAD
1000
MTEXTBEGIN
1070
    73
1070
     1
1070
    44
1040
1.0
1070
    74
1070
     0
1000
MTEXTEND
  0
SOLID
  5
8E24
330
8D85
100
AcDbEntity
  8
标注线
 48
5.0
100
AcDbTrace
 10
1486.247919053776
 20
140.6590680425548
 30
0.0
 11
1486.247919053776
 21
140.4424013758882
 31
0.0
 12
1486.897919053776
 22
140.5507347092215
 32
0.0
 13
1486.897919053776
 23
140.5507347092215
 33
0.0
  0
SOLID
  5
8E25
330
8D85
100
AcDbEntity
  8
标注线
 48
5.0
100
AcDbTrace
 10
1464.547965053778
 20
140.6590680425548
 30
0.0
 11
1464.547965053778
 21
140.4424013758882
 31
0.0
 12
1463.897965053778
 22
140.5507347092215
 32
0.0
 13
1463.897965053778
 23
140.5507347092215
 33
0.0
  0
POINT
  5
8E26
330
8D85
100
AcDbEntity
  8
DEFPOINTS
 62
     0
 48
5.0
100
AcDbPoint
 10
1486.897919053776
 20
144.9426083752777
 30
0.0
  0
POINT
  5
8E27
330
8D85
100
AcDbEntity
  8
DEFPOINTS
 62
     0
 48
5.0
100
AcDbPoint
 10
1463.897965053778
 20
144.9426083752777
 30
0.0
  0
POINT
  5
8E28
330
8D85
100
AcDbEntity
  8
DEFPOINTS
 62
     0
 48
5.0
100
AcDbPoint
 10
1463.897965053778
 20
140.5507347092215
 30
0.0
  0
ENDBLK
  5
8D87
330
8D85
100
AcDbEntity
  8
0
100
AcDbBlockEnd
  0
BLOCK
  5
8D94
330
8D93
100
AcDbEntity
  8
0
100
AcDbBlockBegin
  2
*D34
 70
     1
 10
0.0
 20
0.0
 30
0.0
  3
*D34
  1

  0
LINE
  5
8E15
330
8D93
100
AcDbEntity
  8
标注线
 48
5.0
370
    -2
100
AcDbLine
 10
1485.897921053763
 20
144.999275076645
 30
0.0
 11
1485.897921053763
 21
142.1842318158383
 31
0.0
  0
LINE
  5
8E16
330
8D93
100
AcDbEntity
  8
标注线
 48
5.0
370
    -2
100
AcDbLine
 10
1464.897963053762
 20
144.999275076645
 30
0.0
 11
1464.897963053762
 21
142.1842318158383
 31
0.0
  0
LINE
  5
8E17
330
8D93
100
AcDbEntity
  8
标注线
 48
5.0
370
    -2
100
AcDbLine
 10
1485.247921053763
 20
142.5042318158383
 30
0.0
 11
1476.329541644485
 21
142.5042318158383
 31
0.0
  0
LINE
  5
8E18
330
8D93
100
AcDbEntity
  8
标注线
 48
5.0
370
    -2
100
AcDbLine
 10
1465.547963053762
 20
142.5042318158383
 30
0.0
 11
1474.466342463039
 21
142.5042318158383
 31
0.0
  0
SOLID
  5
8E19
330
8D93
100
AcDbEntity
  8
标注线
 48
5.0
100
AcDbTrace
 10
1485.247921053763
 20
142.6125651491716
 30
0.0
 11
1485.247921053763
 21
142.395898482505
 31
0.0
 12
1485.897921053763
 22
142.5042318158383
 32
0.0
 13
1485.897921053763
 23
142.5042318158383
 33
0.0
  0
SOLID
  5
8E1A
330
8D93
100
AcDbEntity
  8
标注线
 48
5.0
100
AcDbTrace
 10
1465.547963053762
 20
142.6125651491716
 30
0.0
 11
1465.547963053762
 21
142.395898482505
 31
0.0
 12
1464.897963053762
 22
142.5042318158383
 32
0.0
 13
1464.897963053762
 23
142.5042318158383
 33
0.0
  0
MTEXT
  5
8E1B
330
8D93
100
AcDbEntity
  8
标注线
 48
5.0
100
AcDbMText
 10
1475.397942053762
 20
142.5042318158383
 30
0.0
 40
0.65
 41
0.0
 71
     5
 72
     1
  1
\A1;21"
 73
     1
 44
1.0
1001
ACAD
1000
MTEXTBEGIN
1070
    73
1070
     1
1070
    44
1040
1.0
1070
    74
1070
     0
1000
MTEXTEND
  0
POINT
  5
8E1C
330
8D93
100
AcDbEntity
  8
DEFPOINTS
 62
     0
 48
5.0
100
AcDbPoint
 10
1485.897921053763
 20
145.879275076645
 30
0.0
  0
POINT
  5
8E1D
330
8D93
100
AcDbEntity
  8
DEFPOINTS
 62
     0
 48
5.0
100
AcDbPoint
 10
1464.897963053762
 20
145.879275076645
 30
0.0
  0
POINT
  5
8E1E
330
8D93
100
AcDbEntity
  8
DEFPOINTS
 62
     0
 48
5.0
100
AcDbPoint
 10
1464.897963053762
 20
142.5042318158383
 30
0.0
  0
ENDBLK
  5
8D95
330
8D93
100
AcDbEntity
  8
0
100
AcDbBlockEnd
  0
BLOCK
  5
8DA2
330
8DA1
100
AcDbEntity
  8
0
100
AcDbBlockBegin
  2
*D35
 70
     1
 10
0.0
 20
0.0
 30
0.0
  3
*D35
  1

  0
LINE
  5
8E47
330
8DA1
100
AcDbEntity
  8
标注线
 48
5.0
370
    -2
100
AcDbLine
 10
1486.444395104054
 20
145.0323836765216
 30
0.0
 11
1487.02992076535
 21
144.7501431763035
 31
0.0
  0
MTEXT
  5
8E48
330
8DA1
100
AcDbEntity
  8
标注线
 48
5.0
100
AcDbMText
 10
1438.643220566677
 20
168.0739483836491
 30
0.0
 40
0.65
 41
0.0
 71
     5
 72
     1
  1
\A1;R3/8"
 11
0.9008087096867852
 21
-0.4342161541817957
 31
0.0
 73
     1
 44
1.0
1001
ACAD
1000
MTEXTBEGIN
1070
    73
1070
     1
1070
    44
1040
1.0
1070
    74
1070
     0
1000
MTEXTEND
  0
LINE
  5
8E49
330
8DA1
100
AcDbEntity
  8
标注线
 48
5.0
370
    -2
100
AcDbLine
 10
1485.504221053776
 20
145.4855750766298
 30
0.0
 11
1485.858869442757
 21
145.3146241767397
 31
0.0
  0
SOLID
  5
8E4A
330
8DA1
100
AcDbEntity
  8
标注线
 48
5.0
100
AcDbTrace
 10
1486.491435187423
 20
145.1299712867376
 30
0.0
 11
1486.397355020684
 21
144.9347960663054
 31
0.0
 12
1485.858869442757
 22
145.3146241767397
 32
0.0
 13
1485.858869442757
 23
145.3146241767397
 33
0.0
  0
POINT
  5
8E4B
330
8DA1
100
AcDbEntity
  8
DEFPOINTS
 62
     0
 48
5.0
100
AcDbPoint
 10
1485.858869442757
 20
145.3146241767397
 30
0.0
  0
POINT
  5
8E4C
330
8DA1
100
AcDbEntity
  8
DEFPOINTS
 62
     0
 48
5.0
100
AcDbPoint
 10
1485.504221053776
 20
145.4855750766298
 30
0.0
  0
ENDBLK
  5
8DA3
330
8DA1
100
AcDbEntity
  8
0
100
AcDbBlockEnd
  0
BLOCK
  5
8DAA
330
8DA9
100
AcDbEntity
  8
0
100
AcDbBlockBegin
  2
*D36
 70
     1
 10
0.0
 20
0.0
 30
0.0
  3
*D36
  1

  0
LINE
  5
8E33
330
8DA9
100
AcDbEntity
  8
标注线
 48
5.0
370
    -2
100
AcDbLine
 10
1486.545759391687
 20
162.8438080766362
 30
0.0
 11
1492.012442907294
 21
162.8438080766362
 31
0.0
  0
LINE
  5
8E34
330
8DA9
100
AcDbEntity
  8
标注线
 48
5.0
370
    -2
100
AcDbLine
 10
1487.777919053776
 20
144.0918770766301
 30
0.0
 11
1492.012442907294
 21
144.0918770766301
 31
0.0
  0
LINE
  5
8E35
330
8DA9
100
AcDbEntity
  8
标注线
 48
5.0
370
    -2
100
AcDbLine
 10
1491.692442907294
 20
162.1938080766362
 30
0.0
 11
1491.692442907294
 21
155.1206051960056
 31
0.0
  0
LINE
  5
8E36
330
8DA9
100
AcDbEntity
  8
标注线
 48
5.0
370
    -2
100
AcDbLine
 10
1491.692442907294
 20
144.7418770766301
 30
0.0
 11
1491.692442907294
 21
151.8150799572607
 31
0.0
  0
MTEXT
  5
8E37
330
8DA9
100
AcDbEntity
  8
标注线
 48
5.0
100
AcDbMText
 10
1491.692442907294
 20
153.4678425766334
 30
0.0
 40
0.65
 41
0.0
 71
     5
 72
     1
  1
\A1;18 3/4"
 11
0.0000000000000001
 21
1.0
 31
0.0
 73
     1
 44
1.0
1001
ACAD
1000
MTEXTBEGIN
1070
    73
1070
     1
1070
    44
1040
1.0
1070
    74
1070
     0
1000
MTEXTEND
  0
SOLID
  5
8E38
330
8DA9
100
AcDbEntity
  8
标注线
 48
5.0
100
AcDbTrace
 10
1491.584109573961
 20
162.1938080766362
 30
0.0
 11
1491.800776240627
 21
162.1938080766362
 31
0.0
 12
1491.692442907294
 22
162.8438080766362
 32
0.0
 13
1491.692442907294
 23
162.8438080766362
 33
0.0
  0
SOLID
  5
8E39
330
8DA9
100
AcDbEntity
  8
标注线
 48
5.0
100
AcDbTrace
 10
1491.584109573961
 20
144.7418770766301
 30
0.0
 11
1491.800776240627
 21
144.7418770766301
 31
0.0
 12
1491.692442907294
 22
144.0918770766301
 32
0.0
 13
1491.692442907294
 23
144.0918770766301
 33
0.0
  0
POINT
  5
8E3A
330
8DA9
100
AcDbEntity
  8
DEFPOINTS
 62
     0
 48
5.0
100
AcDbPoint
 10
1485.665759391687
 20
162.8438080766362
 30
0.0
  0
POINT
  5
8E3B
330
8DA9
100
AcDbEntity
  8
DEFPOINTS
 62
     0
 48
5.0
100
AcDbPoint
 10
1486.897919053776
 20
144.0918770766301
 30
0.0
  0
POINT
  5
8E3C
330
8DA9
100
AcDbEntity
  8
DEFPOINTS
 62
     0
 48
5.0
100
AcDbPoint
 10
1491.692442907294
 20
144.0918770766301
 30
0.0
  0
ENDBLK
  5
8DAB
330
8DA9
100
AcDbEntity
  8
0
100
AcDbBlockEnd
  0
BLOCK
  5
8DB8
330
8DB7
100
AcDbEntity
  8
0
100
AcDbBlockBegin
  2
*D37
 70
     1
 10
0.0
 20
0.0
 30
0.0
  3
*D37
  1

  0
LINE
  5
8E29
330
8DB7
100
AcDbEntity
  8
标注线
 48
5.0
370
    -2
100
AcDbLine
 10
1486.384221053777
 20
161.8438100766224
 30
0.0
 11
1489.997585238224
 21
161.8438100766224
 31
0.0
  0
LINE
  5
8E2A
330
8DB7
100
AcDbEntity
  8
标注线
 48
5.0
370
    -2
100
AcDbLine
 10
1485.990521053762
 20
145.091875076644
 30
0.0
 11
1489.997585238224
 21
145.091875076644
 31
0.0
  0
LINE
  5
8E2B
330
8DB7
100
AcDbEntity
  8
标注线
 48
5.0
370
    -2
100
AcDbLine
 10
1489.677585238224
 20
161.1938100766224
 30
0.0
 11
1489.677585238224
 21
155.1206051960056
 31
0.0
  0
LINE
  5
8E2C
330
8DB7
100
AcDbEntity
  8
标注线
 48
5.0
370
    -2
100
AcDbLine
 10
1489.677585238224
 20
145.741875076644
 30
0.0
 11
1489.677585238224
 21
151.8150799572607
 31
0.0
  0
MTEXT
  5
8E2D
330
8DB7
100
AcDbEntity
  8
标注线
 48
5.0
100
AcDbMText
 10
1489.677585238224
 20
153.4678425766334
 30
0.0
 40
0.65
 41
0.0
 71
     5
 72
     1
  1
\A1;16 3/4"
 11
0.0000000000000001
 21
1.0
 31
0.0
 73
     1
 44
1.0
1001
ACAD
1000
MTEXTBEGIN
1070
    73
1070
     1
1070
    44
1040
1.0
1070
    74
1070
     0
1000
MTEXTEND
  0
SOLID
  5
8E2E
330
8DB7
100
AcDbEntity
  8
标注线
 48
5.0
100
AcDbTrace
 10
1489.569251904891
 20
161.1938100766224
 30
0.0
 11
1489.785918571558
 21
161.1938100766224
 31
0.0
 12
1489.677585238224
 22
161.8438100766224
 32
0.0
 13
1489.677585238224
 23
161.8438100766224
 33
0.0
  0
SOLID
  5
8E2F
330
8DB7
100
AcDbEntity
  8
标注线
 48
5.0
100
AcDbTrace
 10
1489.569251904891
 20
145.741875076644
 30
0.0
 11
1489.785918571558
 21
145.741875076644
 31
0.0
 12
1489.677585238224
 22
145.091875076644
 32
0.0
 13
1489.677585238224
 23
145.091875076644
 33
0.0
  0
POINT
  5
8E30
330
8DB7
100
AcDbEntity
  8
DEFPOINTS
 62
     0
 48
5.0
100
AcDbPoint
 10
1485.504221053776
 20
161.8438100766224
 30
0.0
  0
POINT
  5
8E31
330
8DB7
100
AcDbEntity
  8
DEFPOINTS
 62
     0
 48
5.0
100
AcDbPoint
 10
1485.110521053761
 20
145.091875076644
 30
0.0
  0
POINT
  5
8E32
330
8DB7
100
AcDbEntity
  8
DEFPOINTS
 62
     0
 48
5.0
100
AcDbPoint
 10
1489.677585238224
 20
145.091875076644
 30
0.0
  0
ENDBLK
  5
8DB9
330
8DB7
100
AcDbEntity
  8
0
100
AcDbBlockEnd
  0
BLOCK
  5
8E4F
330
8E4E
100
AcDbEntity
  8
0
100
AcDbBlockBegin
  2
*D38
 70
     1
 10
0.0
 20
0.0
 30
0.0
  3
*D38
  1

  0
LINE
  5
8E51
330
8E4E
100
AcDbEntity
  8
标注线
  6
Continuous
370
    -2
100
AcDbLine
 10
1464.870647231609
 20
144.5305591775638
 30
0.0
 11
1464.608445176995
 21
143.9357902454932
 31
0.0
  0
MTEXT
  5
8E52
330
8E4E
100
AcDbEntity
  8
标注线
100
AcDbMText
 10
1465.603375169026
 20
146.8629353583307
 30
0.0
 40
0.65
 41
0.0
 71
     5
 72
     1
  1
\A1;R3/8"
 11
0.4033877763283646
 21
0.9150291262625781
 31
0.0
 73
     1
 44
1.0
1001
ACAD
1000
MTEXTBEGIN
1070
    73
1070
     1
1070
    44
1040
1.0
1070
    74
1070
     0
1000
MTEXTEND
  0
LINE
  5
8E53
330
8E4E
100
AcDbEntity
  8
标注线
  6
Continuous
370
    -2
100
AcDbLine
 10
1465.291663053762
 20
145.4855750766443
 30
0.0
 11
1465.132849286222
 21
145.1253281096345
 31
0.0
  0
SOLID
  5
8E54
330
8E4E
100
AcDbEntity
  8
标注线
100
AcDbTrace
 10
1464.771519076264
 20
144.5742595199994
 30
0.0
 11
1464.969775386954
 21
144.4868588351282
 31
0.0
 12
1465.132849286222
 22
145.1253281096345
 32
0.0
 13
1465.132849286222
 23
145.1253281096345
 33
0.0
  0
POINT
  5
8E55
330
8E4E
100
AcDbEntity
  8
DEFPOINTS
 62
     0
100
AcDbPoint
 10
1465.132849286222
 20
145.1253281096345
 30
0.0
  0
POINT
  5
8E56
330
8E4E
100
AcDbEntity
  8
DEFPOINTS
 62
     0
100
AcDbPoint
 10
1465.291663053762
 20
145.4855750766443
 30
0.0
  0
ENDBLK
  5
8E50
330
8E4E
100
AcDbEntity
  8
0
100
AcDbBlockEnd
  0
BLOCK
  5
8E59
330
8E58
100
AcDbEntity
  8
0
100
AcDbBlockBegin
  2
*D39
 70
     1
 10
0.0
 20
0.0
 30
0.0
  3
*D39
  1

  0
LINE
  5
8E93
330
8E58
100
AcDbEntity
  8
标注线
 48
5.0
370
    -2
100
AcDbLine
 10
1464.819223053765
 20
111.8218825606848
 30
0.0
 11
1464.819223053765
 21
109.0773186415955
 31
0.0
  0
LINE
  5
8E94
330
8E58
100
AcDbEntity
  8
标注线
 48
5.0
370
    -2
100
AcDbLine
 10
1485.976661053789
 20
111.8218825606848
 30
0.0
 11
1485.976661053789
 21
109.0773186415955
 31
0.0
  0
LINE
  5
8E95
330
8E58
100
AcDbEntity
  8
标注线
 48
5.0
370
    -2
100
AcDbLine
 10
1465.469223053765
 20
109.3973186415956
 30
0.0
 11
1473.709043690885
 21
109.3973186415956
 31
0.0
  0
LINE
  5
8E96
330
8E58
100
AcDbEntity
  8
标注线
 48
5.0
370
    -2
100
AcDbLine
 10
1485.326661053789
 20
109.3973186415956
 30
0.0
 11
1477.086840416669
 21
109.3973186415956
 31
0.0
  0
SOLID
  5
8E97
330
8E58
100
AcDbEntity
  8
标注线
 48
5.0
100
AcDbTrace
 10
1465.469223053765
 20
109.5056519749289
 30
0.0
 11
1465.469223053765
 21
109.2889853082622
 31
0.0
 12
1464.819223053765
 22
109.3973186415956
 32
0.0
 13
1464.819223053765
 23
109.3973186415956
 33
0.0
  0
SOLID
  5
8E98
330
8E58
100
AcDbEntity
  8
标注线
 48
5.0
100
AcDbTrace
 10
1485.326661053789
 20
109.5056519749289
 30
0.0
 11
1485.326661053789
 21
109.2889853082622
 31
0.0
 12
1485.976661053789
 22
109.3973186415956
 32
0.0
 13
1485.976661053789
 23
109.3973186415956
 33
0.0
  0
MTEXT
  5
8E99
330
8E58
100
AcDbEntity
  8
标注线
 48
5.0
100
AcDbMText
 10
1475.397942053777
 20
109.3973186415956
 30
0.0
 40
0.65
 41
0.0
 71
     5
 72
     1
  1
\A1;21 1/8"
 73
     1
 44
1.0
1001
ACAD
1000
MTEXTBEGIN
1070
    73
1070
     1
1070
    44
1040
1.0
1070
    74
1070
     0
1000
MTEXTEND
  0
POINT
  5
8E9A
330
8E58
100
AcDbEntity
  8
DEFPOINTS
 62
     0
 48
5.0
100
AcDbPoint
 10
1464.819223053765
 20
112.7018825606848
 30
0.0
  0
POINT
  5
8E9B
330
8E58
100
AcDbEntity
  8
DEFPOINTS
 62
     0
 48
5.0
100
AcDbPoint
 10
1485.976661053789
 20
112.7018825606848
 30
0.0
  0
POINT
  5
8E9C
330
8E58
100
AcDbEntity
  8
DEFPOINTS
 62
     0
 48
5.0
100
AcDbPoint
 10
1485.976661053789
 20
109.3973186415956
 30
0.0
  0
ENDBLK
  5
8E5A
330
8E58
100
AcDbEntity
  8
0
100
AcDbBlockEnd
  0
BLOCK
  5
8E68
330
8E67
100
AcDbEntity
  8
0
100
AcDbBlockBegin
  2
*D40
 70
     1
 10
0.0
 20
0.0
 30
0.0
  3
*D40
  1

  0
LINE
  5
8E89
330
8E67
100
AcDbEntity
  8
标注线
 48
5.0
370
    -2
100
AcDbLine
 10
1486.384221053777
 20
111.7634828750459
 30
0.0
 11
1488.555218137306
 21
111.7634828750459
 31
0.0
  0
LINE
  5
8E8A
330
8E67
100
AcDbEntity
  8
标注线
 48
5.0
370
    -2
100
AcDbLine
 10
1486.384221053747
 20
128.6728978750478
 30
0.0
 11
1488.555218137306
 21
128.6728978750478
 31
0.0
  0
LINE
  5
8E8B
330
8E67
100
AcDbEntity
  8
标注线
 48
5.0
370
    -2
100
AcDbLine
 10
1488.235218137306
 20
112.4134828750459
 30
0.0
 11
1488.235218137306
 21
118.5654277556745
 31
0.0
  0
LINE
  5
8E8C
330
8E67
100
AcDbEntity
  8
标注线
 48
5.0
370
    -2
100
AcDbLine
 10
1488.235218137306
 20
128.0228978750478
 30
0.0
 11
1488.235218137306
 21
121.8709529944193
 31
0.0
  0
SOLID
  5
8E8D
330
8E67
100
AcDbEntity
  8
标注线
 48
5.0
100
AcDbTrace
 10
1488.126884803973
 20
112.4134828750459
 30
0.0
 11
1488.343551470639
 21
112.4134828750459
 31
0.0
 12
1488.235218137306
 22
111.7634828750459
 32
0.0
 13
1488.235218137306
 23
111.7634828750459
 33
0.0
  0
SOLID
  5
8E8E
330
8E67
100
AcDbEntity
  8
标注线
 48
5.0
100
AcDbTrace
 10
1488.126884803973
 20
128.0228978750478
 30
0.0
 11
1488.343551470639
 21
128.0228978750478
 31
0.0
 12
1488.235218137306
 22
128.6728978750478
 32
0.0
 13
1488.235218137306
 23
128.6728978750478
 33
0.0
  0
MTEXT
  5
8E8F
330
8E67
100
AcDbEntity
  8
标注线
 48
5.0
100
AcDbMText
 10
1488.235218137306
 20
120.2181903750471
 30
0.0
 40
0.65
 41
0.0
 71
     5
 72
     1
  1
\A1;16 7/8"
 11
0.0000000000000001
 21
1.0
 31
0.0
 73
     1
 44
1.0
1001
ACAD
1000
MTEXTBEGIN
1070
    73
1070
     1
1070
    44
1040
1.0
1070
    74
1070
     0
1000
MTEXTEND
  0
POINT
  5
8E90
330
8E67
100
AcDbEntity
  8
DEFPOINTS
 62
     0
 48
5.0
100
AcDbPoint
 10
1485.504221053776
 20
111.7634828750459
 30
0.0
  0
POINT
  5
8E91
330
8E67
100
AcDbEntity
  8
DEFPOINTS
 62
     0
 48
5.0
100
AcDbPoint
 10
1485.504221053747
 20
128.6728978750478
 30
0.0
  0
POINT
  5
8E92
330
8E67
100
AcDbEntity
  8
DEFPOINTS
 62
     0
 48
5.0
100
AcDbPoint
 10
1488.235218137306
 20
128.6728978750478
 30
0.0
  0
ENDBLK
  5
8E69
330
8E67
100
AcDbEntity
  8
0
100
AcDbBlockEnd
  0
BLOCK
  5
8E9F
330
8E9E
100
AcDbEntity
  8
0
100
AcDbBlockBegin
  2
*D41
 70
     1
 10
0.0
 20
0.0
 30
0.0
  3
*D41
  1

  0
LINE
  5
8EA1
330
8E9E
100
AcDbEntity
  8
标注线
  6
Continuous
370
    -2
100
AcDbLine
 10
1464.602986305277
 20
111.3495844014959
 30
0.0
 11
1464.204176670449
 21
110.8363097428887
 31
0.0
  0
MTEXT
  5
8EA2
330
8E9E
100
AcDbEntity
  8
标注线
100
AcDbMText
 10
1465.80164995338
 20
113.3086422444085
 30
0.0
 40
0.65
 41
0.0
 71
     5
 72
     1
  1
\A1;R1/2"
 11
0.6135532843506062
 21
0.7896533209343099
 31
0.0
 73
     1
 44
1.0
1001
ACAD
1000
MTEXTBEGIN
1070
    73
1070
     1
1070
    44
1040
1.0
1070
    74
1070
     0
1000
MTEXTEND
  0
LINE
  5
8EA3
330
8E9E
100
AcDbEntity
  8
标注线
  6
Continuous
370
    -2
100
AcDbLine
 10
1465.291663053763
 20
112.2359228750437
 30
0.0
 11
1465.001795940105
 21
111.8628590601032
 31
0.0
  0
SOLID
  5
8EA4
330
8E9E
100
AcDbEntity
  8
标注线
100
AcDbTrace
 10
1464.517440528843
 20
111.4160526739672
 30
0.0
 11
1464.688532081712
 21
111.2831161290246
 31
0.0
 12
1465.001795940105
 22
111.8628590601032
 32
0.0
 13
1465.001795940105
 23
111.8628590601032
 33
0.0
  0
POINT
  5
8EA5
330
8E9E
100
AcDbEntity
  8
DEFPOINTS
 62
     0
100
AcDbPoint
 10
1465.001795940105
 20
111.8628590601032
 30
0.0
  0
POINT
  5
8EA6
330
8E9E
100
AcDbEntity
  8
DEFPOINTS
 62
     0
100
AcDbPoint
 10
1465.291663053763
 20
112.2359228750437
 30
0.0
  0
ENDBLK
  5
8EA0
330
8E9E
100
AcDbEntity
  8
0
100
AcDbBlockEnd
  0
ENDSEC
  0
SECTION
  2
ENTITIES
  0
LWPOLYLINE
  5
8D35
330
5F6E
100
AcDbEntity
  8
0
100
AcDbPolyline
 90
        2
 70
     0
 43
0.0
 10
1485.307371053769
 20
145.6824250766375
 10
1476.984616983228
 20
154.2961614110689
  0
LWPOLYLINE
  5
8D36
330
5F6E
100
AcDbEntity
  8
0
100
AcDbPolyline
 90
        2
 70
     0
 43
0.0
 10
1485.307371053769
 20
161.2532600766288
 10
1477.410231223603
 20
157.0176070092137
  0
LINE
  5
8D37
330
5F6E
100
AcDbEntity
  8
0
100
AcDbLine
 10
1486.897919053776
 20
180.5292409130787
 30
0.0
 11
1486.016031053773
 21
180.5292409130787
 31
0.0
  0
LINE
  5
8D38
330
5F6E
100
AcDbEntity
  8
虚线
 48
2.0
100
AcDbLine
 10
1485.897921053792
 20
180.4111309130684
 30
0.0
 11
1485.897921053792
 21
171.9867284318324
 31
0.0
  0
ARC
  5
8D39
330
5F6E
100
AcDbEntity
  8
虚线
 48
2.0
100
AcDbCircle
 10
1485.504221053776
 20
171.9867284318324
 30
0.0
 40
0.3937
100
AcDbArc
 50
270.9198626767888
 51
0.0
  0
LINE
  5
8D3A
330
5F6E
100
AcDbEntity
  8
虚线
 48
2.0
100
AcDbLine
 10
1464.897963053762
 20
171.9867284313667
 30
0.0
 11
1464.897963053762
 21
180.4111309130684
 31
0.0
  0
LINE
  5
8D3B
330
5F6E
100
AcDbEntity
  8
0
100
AcDbLine
 10
1464.779853053781
 20
180.5292409130787
 30
0.0
 11
1463.897965053778
 21
180.5292409130787
 31
0.0
  0
DIMENSION
  5
8D3C
330
5F6E
100
AcDbEntity
  8
标注线
 48
5.0
100
AcDbDimension
  2
*D32
 10
1488.846935337072
 20
171.527586643061
 30
0.0
 11
1488.846935337072
 21
176.0284137780701
 31
0.0
 70
   160
 71
     5
 42
9.001654270017752
  3
副本Standard$0
100
AcDbAlignedDimension
 13
1486.876604715316
 23
180.5292409130787
 33
0.0
 14
1486.427156729985
 24
171.527586643061
 34
0.0
 50
90.0
100
AcDbRotatedDimension
1001
ACAD
1000
DSTYLE
1002
{
1070
     3
1000
"
1070
    41
1040
0.65
1070
    42
1040
0.88
1070
    43
1040
0.015
1070
    44
1040
0.32
1070
    79
1070
     0
1070
   140
1040
0.65
1070
   147
1040
0.3
1070
   171
1070
     1
1070
   179
1070
     0
1070
   271
1070
     3
1070
   272
1070
     3
1070
   273
1070
     2
1070
   274
1070
     1
1070
   276
1070
     2
1070
   277
1070
     5
1070
   278
1070
    46
1070
   279
1070
     2
1070
   284
1070
     8
1070
   285
1070
     8
1070
   286
1070
     8
1002
}
  0
LINE
  5
8D3D
330
5F6E
100
AcDbEntity
  8
0
100
AcDbLine
 10
1486.016031053773
 20
180.5292409130787
 30
0.0
 11
1464.779853053781
 21
180.5292409130787
 31
0.0
  0
LWPOLYLINE
  5
8D3E
330
5F6E
100
AcDbEntity
  8
0
100
AcDbPolyline
 90
        2
 70
     0
 43
0.0
 10
1473.811267124297
 20
154.2961614110689
 10
1465.488513053785
 20
145.6824250766375
  0
LWPOLYLINE
  5
8D3F
330
5F6E
100
AcDbEntity
  8
0
100
AcDbPolyline
 90
        2
 70
     0
 43
0.0
 10
1473.657793492818
 20
157.4168473799663
 10
1469.14256887302
 20
161.2532600766288
  0
LWPOLYLINE
  5
8D40
330
5F6E
100
AcDbEntity
  8
中心线
 48
2.0
100
AcDbPolyline
 90
        2
 70
     0
 43
0.0
 10
1475.397942053777
 20
158.9165282798066
 10
1475.397942053777
 20
152.6458734791675
  0
LWPOLYLINE
  5
8D41
330
5F6E
100
AcDbEntity
  8
中心线
 48
2.0
100
AcDbPolyline
 90
        2
 70
     0
 43
0.0
 10
1478.100990065181
 20
155.9383100766289
 10
1472.694894042373
 20
155.9383100766289
  0
DIMENSION
  5
8D42
330
5F6E
100
AcDbEntity
  8
标注线
 48
5.0
100
AcDbDimension
  2
*D33
 10
1463.897965053778
 20
140.5507347092215
 30
0.0
 11
1475.397942053777
 21
140.5507347092215
 31
0.0
 70
   160
 71
     5
 42
22.99995399999898
  3
副本Standard$0
100
AcDbAlignedDimension
 13
1486.897919053776
 23
144.9426083752777
 33
0.0
 14
1463.897965053778
 24
144.9426083752777
 34
0.0
 50
180.0
100
AcDbRotatedDimension
1001
ACAD
1000
DSTYLE
1002
{
1070
     3
1000
"
1070
    41
1040
0.65
1070
    42
1040
0.88
1070
    43
1040
0.015
1070
    44
1040
0.32
1070
    79
1070
     0
1070
   140
1040
0.65
1070
   147
1040
0.3
1070
   171
1070
     1
1070
   179
1070
     0
1070
   271
1070
     3
1070
   272
1070
     3
1070
   273
1070
     2
1070
   274
1070
     1
1070
   276
1070
     2
1070
   277
1070
     5
1070
   278
1070
    46
1070
   279
1070
     2
1070
   284
1070
     8
1070
   285
1070
     8
1070
   286
1070
     8
1002
}
  0
CIRCLE
  5
8D43
330
5F6E
100
AcDbEntity
  8
0
100
AcDbCircle
 10
1475.397942053777
 20
155.9383100766289
 30
0.0
 40
2.165350000000524
  0
DIMENSION
  5
8D44
330
5F6E
100
AcDbEntity
  8
标注线
 48
5.0
100
AcDbDimension
  2
*D34
 10
1464.897963053762
 20
142.5042318158383
 30
0.0
 11
1475.397942053762
 21
142.5042318158383
 31
0.0
 70
    32
 71
     5
 42
20.99995800000034
  3
副本Standard$0
100
AcDbAlignedDimension
 13
1485.897921053763
 23
145.879275076645
 33
0.0
 14
1464.897963053762
 24
145.879275076645
 34
0.0
 50
180.0
100
AcDbRotatedDimension
1001
ACAD
1000
DSTYLE
1002
{
1070
     3
1000
"
1070
    41
1040
0.65
1070
    42
1040
0.88
1070
    43
1040
0.015
1070
    44
1040
0.32
1070
    79
1070
     0
1070
   140
1040
0.65
1070
   147
1040
0.3
1070
   171
1070
     1
1070
   179
1070
     0
1070
   271
1070
     3
1070
   272
1070
     3
1070
   273
1070
     2
1070
   274
1070
     1
1070
   276
1070
     2
1070
   277
1070
     5
1070
   278
1070
    46
1070
   279
1070
     2
1070
   284
1070
     8
1070
   285
1070
     8
1070
   286
1070
     8
1002
}
  0
CIRCLE
  5
8D45
330
5F6E
100
AcDbEntity
  8
0
100
AcDbCircle
 10
1475.397942053777
 20
155.9383100766289
 30
0.0
 40
1.791335000000303
  0
CIRCLE
  5
8D46
330
5F6E
100
AcDbEntity
  8
0
100
AcDbCircle
 10
1475.397942053777
 20
155.9383100766289
 30
0.0
 40
2.28346
  0
LINE
  5
8D47
330
5F6E
100
AcDbEntity
  8
中心线
 48
2.0
100
AcDbLine
 10
1475.397942053777
 20
170.5292130629249
 30
0.0
 11
1475.397942053777
 21
173.8723596179924
 31
0.0
  0
LINE
  5
8D48
330
5F6E
100
AcDbEntity
  8
0
100
AcDbLine
 10
1464.838908053772
 20
171.9867360429206
 30
0.0
 11
1464.838908053772
 21
180.4111309130684
 31
0.0
  0
ARC
  5
8D49
330
5F6E
100
AcDbEntity
  8
0
100
AcDbCircle
 10
1465.291663053777
 20
171.9867360429206
 30
0.0
 40
0.452755
100
AcDbArc
 50
180.0
 51
269.0801373648916
  0
LINE
  5
8D4A
330
5F6E
100
AcDbEntity
  8
0
100
AcDbLine
 10
1464.779853053781
 20
180.4701859130881
 30
0.0
 11
1463.897965053778
 21
180.4701859130881
 31
0.0
  0
LINE
  5
8D4B
330
5F6E
100
AcDbEntity
  8
0
100
AcDbLine
 10
1486.897919053776
 20
180.4701859130881
 30
0.0
 11
1486.016031053773
 21
180.4701859130881
 31
0.0
  0
LINE
  5
8D4C
330
5F6E
100
AcDbEntity
  8
0
100
AcDbLine
 10
1485.956976053782
 20
180.4111309130684
 30
0.0
 11
1485.956976053782
 21
171.9867360433862
 31
0.0
  0
ARC
  5
8D4D
330
5F6E
100
AcDbEntity
  8
0
100
AcDbCircle
 10
1485.504221053776
 20
171.9867360433862
 30
0.0
 40
0.452755
100
AcDbArc
 50
270.9198626767888
 51
0.0
  0
LINE
  5
8D4E
330
5F6E
100
AcDbEntity
  8
0
100
AcDbLine
 10
1486.897919053776
 20
180.5292409130787
 30
0.0
 11
1486.897919053776
 21
180.4701859130881
 31
0.0
  0
LINE
  5
8D4F
330
5F6E
100
AcDbEntity
  8
0
100
AcDbLine
 10
1463.897965053778
 20
180.5292409130787
 30
0.0
 11
1463.897965053778
 21
180.4701859130881
 31
0.0
  0
ARC
  5
8D50
330
5F6E
100
AcDbEntity
  8
虚线
 48
2.0
100
AcDbCircle
 10
1486.016031053773
 20
180.4111309130684
 30
0.0
 40
0.11811
100
AcDbArc
 50
90.0
 51
180.0
  0
ARC
  5
8D51
330
5F6E
100
AcDbEntity
  8
虚线
 48
2.0
100
AcDbCircle
 10
1464.779853053781
 20
180.4111309130684
 30
0.0
 40
0.11811
100
AcDbArc
 50
0.0
 51
90.0
  0
ARC
  5
8D52
330
5F6E
100
AcDbEntity
  8
0
100
AcDbCircle
 10
1464.779853053781
 20
180.4111309130684
 30
0.0
 40
0.059055
100
AcDbArc
 50
0.0
 51
90.0
  0
ARC
  5
8D53
330
5F6E
100
AcDbEntity
  8
0
100
AcDbCircle
 10
1486.016031053773
 20
180.4111309130684
 30
0.0
 40
0.059055
100
AcDbArc
 50
90.0
 51
180.0
  0
LWPOLYLINE
  5
8D54
330
5F6E
100
AcDbEntity
  8
0
100
AcDbPolyline
 90
       10
 70
     1
 43
0.0
 10
1465.291663053777
 20
145.091875076644
 10
1485.504221053776
 20
145.091875076644
 42
0.4142135623730951
 10
1485.897921053763
 20
145.48557507663
 10
1485.897921053763
 20
161.4501100766364
 42
0.4142135623730951
 10
1485.504221053776
 20
161.8438100766224
 10
1469.061030933267
 20
161.8438100766224
 42
0.198912367379658
 10
1468.782642993535
 20
161.7284980163975
 10
1465.013275114016
 20
157.959130136879
 42
0.198912367379658
 10
1464.897963053762
 20
157.6807421971178
 10
1464.897963053762
 20
145.48557507663
 42
0.4142135623730951
  0
LWPOLYLINE
  5
8D55
330
5F6E
100
AcDbEntity
  8
0
100
AcDbPolyline
 90
       16
 70
     1
 43
0.0
 10
1486.87097653969
 20
144.8833040073522
 42
0.2165066515618436
 10
1486.897919053776
 20
144.9426083752777
 10
1486.897919053776
 20
161.9930767779887
 42
0.2165066515618437
 10
1486.87097653969
 20
162.0523811459142
 10
1485.987102444121
 20
162.8243724445646
 42
0.1814357539532767
 10
1485.935304958239
 20
162.8438080766362
 10
1468.516357495723
 20
162.8438080766362
 42
0.198912367379658
 10
1468.460679907771
 20
162.8207456645913
 10
1463.921027465822
 20
158.2810932226428
 42
0.198912367379658
 10
1463.897965053778
 20
158.2254156346906
 10
1463.897965053778
 20
144.9426083752777
 42
0.2165066515618436
 10
1463.924907567864
 20
144.8833040073522
 10
1464.808781663433
 20
144.1113127087309
 42
0.1814357539532767
 10
1464.860579149315
 20
144.0918770766301
 10
1485.935304958239
 20
144.0918770766301
 42
0.1814357539532767
 10
1485.987102444121
 20
144.1113127087309
  0
LINE
  5
8D56
330
5F6E
100
AcDbEntity
  8
虚线
 48
2.0
100
AcDbLine
 10
1485.510541491106
 20
171.5930791690488
 30
0.0
 11
1477.754398048168
 21
171.4685464360817
 31
0.0
  0
LINE
  5
8D57
330
5F6E
100
AcDbEntity
  8
虚线
 48
2.0
100
AcDbLine
 10
1473.041486581304
 20
171.4685464360817
 30
0.0
 11
1465.285342616885
 21
171.5930791685831
 31
0.0
  0
ARC
  5
8D58
330
5F6E
100
AcDbEntity
  8
虚线
 48
2.0
100
AcDbCircle
 10
1465.291663053777
 20
171.9867284313667
 30
0.0
 40
0.3937
100
AcDbArc
 50
180.0
 51
269.0801373648916
  0
LINE
  5
8D59
330
5F6E
100
AcDbEntity
  8
虚线
 48
2.0
100
AcDbLine
 10
1473.041486581304
 20
171.4685464360817
 30
0.0
 11
1477.754398048168
 21
171.4685464360817
 31
0.0
  0
LINE
  5
8D5A
330
5F6E
100
AcDbEntity
  8
中心线
 48
2.0
100
AcDbLine
 10
1475.397942053777
 20
169.7969731585479
 30
0.0
 11
1475.397942053777
 21
173.1401197136155
 31
0.0
  0
ARC
  5
8D5B
330
5F6E
100
AcDbEntity
  8
虚线
 48
2.0
100
AcDbCircle
 10
1477.754398048168
 20
171.3504364360714
 30
0.0
 40
0.11811
100
AcDbArc
 50
90.0
 51
153.4349489176318
  0
ARC
  5
8D5C
330
5F6E
100
AcDbEntity
  8
虚线
 48
2.0
100
AcDbCircle
 10
1473.041486059385
 20
171.3504364360714
 30
0.0
 40
0.11811
100
AcDbArc
 50
26.5650513284626
 51
90.0
  0
ARC
  5
8D5D
330
5F6E
100
AcDbEntity
  8
虚线
 48
2.0
100
AcDbCircle
 10
1477.526794056565
 20
171.2913814360808
 30
0.0
 40
0.059055
100
AcDbArc
 50
270.0000000416882
 51
333.4349483493782
  0
ARC
  5
8D5E
330
5F6E
100
AcDbEntity
  8
虚线
 48
2.0
100
AcDbCircle
 10
1473.269090050989
 20
171.2913814360808
 30
0.0
 40
0.059055
100
AcDbArc
 50
206.5650522188747
 51
269.9999999583118
  0
LINE
  5
8D5F
330
5F6E
100
AcDbEntity
  8
虚线
 48
2.0
100
AcDbLine
 10
1473.216269653215
 20
171.264971237223
 30
0.0
 11
1473.147126854904
 21
171.4032568338451
 31
0.0
  0
LINE
  5
8D60
330
5F6E
100
AcDbEntity
  8
虚线
 48
2.0
100
AcDbLine
 10
1477.526794056565
 20
171.232326436061
 30
0.0
 11
1477.169592053787
 21
171.232326436061
 31
0.0
  0
LINE
  5
8D61
330
5F6E
100
AcDbEntity
  8
虚线
 48
2.0
100
AcDbLine
 10
1473.626292053767
 20
171.1732714360704
 30
0.0
 11
1473.626292053767
 21
171.232326436061
 31
0.0
  0
LINE
  5
8D62
330
5F6E
100
AcDbEntity
  8
虚线
 48
2.0
100
AcDbLine
 10
1477.579614454339
 20
171.264971237223
 30
0.0
 11
1477.64875725265
 21
171.4032568338451
 31
0.0
  0
LINE
  5
8D63
330
5F6E
100
AcDbEntity
  8
虚线
 48
2.0
100
AcDbLine
 10
1477.169592053787
 20
171.1732714360704
 30
0.0
 11
1477.169592053787
 21
171.232326436061
 31
0.0
  0
LINE
  5
8D64
330
5F6E
100
AcDbEntity
  8
虚线
 48
2.0
100
AcDbLine
 10
1473.626292053767
 20
171.232326436061
 30
0.0
 11
1473.269090050989
 21
171.232326436061
 31
0.0
  0
LINE
  5
8D65
330
5F6E
100
AcDbEntity
  8
虚线
 48
2.0
100
AcDbLine
 10
1477.169592053787
 20
171.232326436061
 30
0.0
 11
1473.626292053767
 21
171.232326436061
 31
0.0
  0
LINE
  5
8D66
330
5F6E
100
AcDbEntity
  8
0
100
AcDbLine
 10
1477.632434852084
 20
171.2385610383361
 30
0.0
 11
1477.701577650424
 21
171.3768466349582
 31
0.0
  0
ARC
  5
8D67
330
5F6E
100
AcDbEntity
  8
0
100
AcDbCircle
 10
1477.754398048168
 20
171.3504364360714
 30
0.0
 40
0.059055
100
AcDbArc
 50
90.0
 51
153.4349489176318
  0
LINE
  5
8D68
330
5F6E
100
AcDbEntity
  8
0
100
AcDbLine
 10
1485.511489556707
 20
171.5340393912055
 30
0.0
 11
1477.754398048168
 21
171.409491436062
 31
0.0
  0
ARC
  5
8D69
330
5F6E
100
AcDbEntity
  8
0
100
AcDbCircle
 10
1477.526794056565
 20
171.2913814360808
 30
0.0
 40
0.11811
100
AcDbArc
 50
270.0000000416882
 51
333.4349483493782
  0
LINE
  5
8D6A
330
5F6E
100
AcDbEntity
  8
0
100
AcDbLine
 10
1477.526794056565
 20
171.1732714360704
 30
0.0
 11
1477.169592053787
 21
171.1732714360704
 31
0.0
  0
LINE
  5
8D6B
330
5F6E
100
AcDbEntity
  8
0
100
AcDbLine
 10
1477.169592053787
 20
171.1732714360704
 30
0.0
 11
1473.626292053767
 21
171.1732714360704
 31
0.0
  0
LINE
  5
8D6C
330
5F6E
100
AcDbEntity
  8
0
100
AcDbLine
 10
1473.626292053767
 20
171.1732714360704
 30
0.0
 11
1473.269090050989
 21
171.1732714360704
 31
0.0
  0
ARC
  5
8D6D
330
5F6E
100
AcDbEntity
  8
0
100
AcDbCircle
 10
1473.269090050989
 20
171.2913814360808
 30
0.0
 40
0.11811
100
AcDbArc
 50
206.5650522188747
 51
269.9999999583118
  0
LINE
  5
8D6E
330
5F6E
100
AcDbEntity
  8
0
100
AcDbLine
 10
1473.16344925547
 20
171.2385610383361
 30
0.0
 11
1473.09430645713
 21
171.3768466349582
 31
0.0
  0
ARC
  5
8D6F
330
5F6E
100
AcDbEntity
  8
0
100
AcDbCircle
 10
1473.041486059385
 20
171.3504364360714
 30
0.0
 40
0.059055
100
AcDbArc
 50
26.5650513284626
 51
90.0
  0
LINE
  5
8D70
330
5F6E
100
AcDbEntity
  8
0
100
AcDbLine
 10
1473.041486581304
 20
171.409491436062
 30
0.0
 11
1465.284394551371
 21
171.5340393907398
 31
0.0
  0
DIMENSION
  5
8D72
330
5F6E
100
AcDbEntity
  8
标注线
 48
5.0
100
AcDbDimension
  2
*D36
 10
1491.692442907294
 20
144.0918770766301
 30
0.0
 11
1491.692442907294
 21
153.4678425766334
 31
0.0
 70
   160
 71
     5
 42
18.75193100000615
  3
副本Standard$0
100
AcDbAlignedDimension
 13
1485.665759391687
 23
162.8438080766362
 33
0.0
 14
1486.897919053776
 24
144.0918770766301
 34
0.0
 50
90.0
100
AcDbRotatedDimension
1001
ACAD
1000
DSTYLE
1002
{
1070
     3
1000
"
1070
    41
1040
0.65
1070
    42
1040
0.88
1070
    43
1040
0.015
1070
    44
1040
0.32
1070
    79
1070
     0
1070
   140
1040
0.65
1070
   147
1040
0.3
1070
   171
1070
     1
1070
   179
1070
     0
1070
   271
1070
     3
1070
   272
1070
     3
1070
   273
1070
     2
1070
   274
1070
     1
1070
   276
1070
     2
1070
   277
1070
     5
1070
   278
1070
    46
1070
   279
1070
     2
1070
   284
1070
     8
1070
   285
1070
     8
1070
   286
1070
     8
1002
}
  0
DIMENSION
  5
8D73
330
5F6E
100
AcDbEntity
  8
标注线
 48
5.0
100
AcDbDimension
  2
*D37
 10
1489.677585238224
 20
145.091875076644
 30
0.0
 11
1489.677585238224
 21
153.4678425766334
 31
0.0
 70
   160
 71
     5
 42
16.7519349999784
  3
副本Standard$0
100
AcDbAlignedDimension
 13
1485.504221053776
 23
161.8438100766224
 33
0.0
 14
1485.110521053761
 24
145.091875076644
 34
0.0
 50
90.0
100
AcDbRotatedDimension
1001
ACAD
1000
DSTYLE
1002
{
1070
     3
1000
"
1070
    41
1040
0.65
1070
    42
1040
0.88
1070
    43
1040
0.015
1070
    44
1040
0.32
1070
    79
1070
     0
1070
   140
1040
0.65
1070
   147
1040
0.3
1070
   171
1070
     1
1070
   179
1070
     0
1070
   271
1070
     3
1070
   272
1070
     3
1070
   273
1070
     2
1070
   274
1070
     1
1070
   276
1070
     2
1070
   277
1070
     5
1070
   278
1070
    46
1070
   279
1070
     2
1070
   284
1070
     8
1070
   285
1070
     8
1070
   286
1070
     8
1002
}
  0
LINE
  5
8D74
330
5F6E
100
AcDbEntity
  8
0
100
AcDbLine
 10
1464.779853053781
 20
180.4701859130881
 30
0.0
 11
1486.016031053773
 21
180.4701859130881
 31
0.0
  0
LINE
  5
8D75
330
5F6E
100
AcDbEntity
  8
0
100
AcDbLine
 10
1473.041486059385
 20
171.409491436062
 30
0.0
 11
1477.754398048168
 21
171.409491436062
 31
0.0
  0
LWPOLYLINE
  5
8D76
330
5F6E
100
AcDbEntity
  8
中心线
  6
Continuous
 62
     1
100
AcDbPolyline
 90
       10
 70
     1
 43
0.0
 10
1465.291663053777
 20
111.7634828750459
 10
1485.504221053776
 20
111.7634828750459
 42
0.4142135623730951
 10
1485.976661053789
 20
112.2359228750291
 10
1485.976661053789
 20
128.2004578750355
 42
0.4142135623730951
 10
1485.504221053776
 20
128.6728978750478
 10
1469.061030933267
 20
128.6728978750187
 42
0.1989123673797996
 10
1468.726965405583
 20
128.5345234027489
 10
1464.957597526064
 20
124.7651555232304
 42
0.1989123673797991
 10
1464.819223053765
 20
124.431089995517
 10
1464.819223053765
 20
112.2359228750291
 42
0.4142135623730951
  0
DIMENSION
  5
8E4D
330
5F6E
100
AcDbEntity
  8
标注线
100
AcDbDimension
  2
*D38
 10
1465.291663053762
 20
145.4855750766443
 30
0.0
 11
1465.603375169026
 21
146.8629353583307
 31
0.0
 70
   164
 71
     5
 42
0.3937000000001944
  3
副本STANDARD
100
AcDbRadialDimension
 15
1465.132849286222
 25
145.1253281096345
 35
0.0
 40
0.0
1001
ACAD
1000
DSTYLE
1002
{
1070
    49
1040
1.25
1070
    50
1040
1.570796326794896
1070
   288
1070
     1
1070
   345
1005
5F5E
1070
   346
1005
5F5E
1070
   347
1005
5F5E
1002
}
1001
ACAD_DSTYLE_DIMRADIAL_EXTENSION
1070
   387
1070
     1
1070
   388
1040
3.141592653626755
1070
   390
1040
4.712388980421651
  0
DIMENSION
  5
8E57
330
5F6E
100
AcDbEntity
  8
标注线
 48
5.0
100
AcDbDimension
  2
*D39
 10
1485.976661053789
 20
109.3973186415956
 30
0.0
 11
1475.397942053777
 21
109.3973186415956
 31
0.0
 70
    32
 71
     5
 42
21.15743800002383
  3
副本Standard$0
100
AcDbAlignedDimension
 13
1464.819223053765
 23
112.7018825606848
 33
0.0
 14
1485.976661053789
 24
112.7018825606848
 34
0.0
100
AcDbRotatedDimension
1001
ACAD
1000
DSTYLE
1002
{
1070
     3
1000
"
1070
    41
1040
0.65
1070
    42
1040
0.88
1070
    43
1040
0.015
1070
    44
1040
0.32
1070
    79
1070
     0
1070
   140
1040
0.65
1070
   147
1040
0.3
1070
   171
1070
     1
1070
   179
1070
     0
1070
   271
1070
     3
1070
   272
1070
     3
1070
   273
1070
     2
1070
   274
1070
     1
1070
   276
1070
     2
1070
   277
1070
     5
1070
   278
1070
    46
1070
   279
1070
     2
1070
   284
1070
     8
1070
   285
1070
     8
1070
   286
1070
     8
1002
}
  0
DIMENSION
  5
8E66
330
5F6E
100
AcDbEntity
  8
标注线
 48
5.0
100
AcDbDimension
  2
*D40
 10
1488.235218137306
 20
128.6728978750478
 30
0.0
 11
1488.235218137306
 21
120.2181903750471
 31
0.0
 70
    32
 71
     5
 42
16.90941500000191
  3
副本Standard$0
100
AcDbAlignedDimension
 13
1485.504221053776
 23
111.7634828750459
 33
0.0
 14
1485.504221053747
 24
128.6728978750478
 34
0.0
 50
90.0
100
AcDbRotatedDimension
1001
ACAD
1000
DSTYLE
1002
{
1070
     3
1000
"
1070
    41
1040
0.65
1070
    42
1040
0.88
1070
    43
1040
0.015
1070
    44
1040
0.32
1070
    79
1070
     0
1070
   140
1040
0.65
1070
   147
1040
0.3
1070
   171
1070
     1
1070
   179
1070
     0
1070
   271
1070
     3
1070
   272
1070
     3
1070
   273
1070
     2
1070
   274
1070
     1
1070
   276
1070
     2
1070
   277
1070
     5
1070
   278
1070
    46
1070
   279
1070
     2
1070
   284
1070
     8
1070
   285
1070
     8
1070
   286
1070
     8
1002
}
  0
TEXT
  5
8EA7
330
5F6E
100
AcDbEntity
  8
标注
100
AcDbText
 10
1476.520128223654
 20
106.1243778638663
 30
0.0
 40
0.7874015748031497
  1
 CUTOUT
100
AcDbText
  0
LINE
  5
8EA8
330
5F6E
100
AcDbEntity
  8
中心线
  6
Continuous
 62
     1
100
AcDbLine
 10
1468.854722143087
 20
106.3775793311712
 30
0.0
 11
1475.071527147171
 21
106.3775793311712
 31
0.0
  0
TEXT
  5
8EA9
330
5F6E
100
AcDbEntity
  8
标注
100
AcDbText
 10
1471.513721587334
 20
137.3502667253717
 30
0.0
 40
0.7874015748031497
  1
OVERHEAD VIEW
100
AcDbText
  0
TEXT
  5
8EAA
330
5F6E
100
AcDbEntity
  8
标注
100
AcDbText
 10
1472.216749223217
 20
167.8933041090514
 30
0.0
 40
0.7874015748031497
  1
FRONT VIEW
100
AcDbText
  0
ENDSEC
  0
SECTION
  2
OBJECTS
  0
DICTIONARY
  5
5F06
330
0
100
AcDbDictionary
281
     1
  3
ACAD_2007HEADERVARS_RT
350
8EC7
  3
ACAD_COLOR
350
5F64
  3
ACAD_GROUP
350
5F07
  3
ACAD_LAYOUT
350
5F63
  3
ACAD_MATERIAL
350
5F0A
  3
ACAD_MLEADERSTYLE
350
5F67
  3
ACAD_MLINESTYLE
350
5F60
  3
ACAD_PLOTSETTINGS
350
5F62
  3
ACAD_PLOTSTYLENAME
350
5F08
  3
ACAD_SCALELIST
350
5F34
  3
ACAD_TABLESTYLE
350
5F65
  3
ACAD_VISUALSTYLE
350
5F23
  3
ACDB_RECOMPOSE_DATA
350
6F70
  3
AcDbVariableDictionary
350
6102
  3
DWGPROPS
350
8EC6
  3
lxx_dict
350
60F2
  0
DICTIONARY
  5
61B7
330
5EFC
100
AcDbDictionary
280
     1
281
     1
  3
ACAD_LAYERSTATES
360
61B8
  0
DICTIONARY
  5
60F4
330
5F56
100
AcDbDictionary
280
     1
281
     1
  3
ADSK_XREC_LAYER_RECONCILED
360
60F5
  0
DICTIONARY
  5
60F6
330
5F72
100
AcDbDictionary
280
     1
281
     1
  3
ADSK_XREC_LAYER_RECONCILED
360
60F7
  0
DICTIONARY
  5
60F8
330
5F7D
100
AcDbDictionary
280
     1
281
     1
  3
ADSK_XREC_LAYER_RECONCILED
360
60F9
  0
DICTIONARY
  5
60FA
330
5F7E
100
AcDbDictionary
280
     1
281
     1
  3
ADSK_XREC_LAYER_RECONCILED
360
60FB
  0
DICTIONARY
  5
60FC
330
5F80
100
AcDbDictionary
280
     1
281
     1
  3
ADSK_XREC_LAYER_RECONCILED
360
60FD
  0
DICTIONARY
  5
6B9D
330
6B9C
100
AcDbDictionary
280
     1
281
     1
  0
DICTIONARY
  5
654F
330
5F6E
100
AcDbDictionary
280
     1
281
     1
  3
ACAD_SORTENTS
360
6550
  0
DICTIONARY
  5
8C9B
330
8C58
100
AcDbDictionary
280
     1
281
     1
  3
ACAD_SORTENTS
360
8C9C
  0
DICTIONARY
  5
8EC7
102
{ACAD_REACTORS
330
5F06
102
}
330
5F06
100
AcDbDictionary
281
     1
  3
DIMFXL
350
8EC8
  3
DIMJOGANG
350
8EC9
  3
DIMLTEX1
350
8ECB
  3
DIMLTEX2
350
8ECC
  3
DIMLTYPE
350
8ECA
  0
DICTIONARY
  5
5F64
102
{ACAD_REACTORS
330
5F06
102
}
330
5F06
100
AcDbDictionary
281
     1
  0
DICTIONARY
  5
5F07
102
{ACAD_REACTORS
330
5F06
102
}
330
5F06
100
AcDbDictionary
281
     1
  0
DICTIONARY
  5
5F63
102
{ACAD_REACTORS
330
5F06
102
}
330
5F06
100
AcDbDictionary
281
     1
  3
Model
350
5F71
  3
布局1
350
5F6D
  0
DICTIONARY
  5
5F0A
102
{ACAD_REACTORS
330
5F06
102
}
330
5F06
100
AcDbDictionary
281
     1
  3
ByBlock
350
5F13
  3
ByLayer
350
5F0B
  3
Global
350
5F1B
  0
DICTIONARY
  5
5F67
102
{ACAD_REACTORS
330
5F06
102
}
330
5F06
100
AcDbDictionary
281
     1
  3
Standard
350
5F68
  0
DICTIONARY
  5
5F60
102
{ACAD_REACTORS
330
5F06
102
}
330
5F06
100
AcDbDictionary
281
     1
  3
Standard
350
5F61
  0
DICTIONARY
  5
5F62
102
{ACAD_REACTORS
330
5F06
102
}
330
5F06
100
AcDbDictionary
281
     1
  0
ACDBDICTIONARYWDFLT
  5
5F08
102
{ACAD_REACTORS
330
5F06
102
}
330
5F06
100
AcDbDictionary
281
     1
  3
Normal
350
5F09
100
AcDbDictionaryWithDefault
340
5F09
  0
DICTIONARY
  5
5F34
102
{ACAD_REACTORS
330
5F06
102
}
330
5F06
100
AcDbDictionary
281
     1
  3
A0
350
5F35
  3
A1
350
5F36
  3
A2
350
5F37
  3
A3
350
5F38
  3
A4
350
5F39
  3
A5
350
5F3A
  3
A6
350
5F3B
  3
A7
350
5F3C
  3
A8
350
5F3D
  3
A9
350
5F3E
  3
B0
350
5F3F
  3
B1
350
5F40
  3
B2
350
5F41
  3
B3
350
5F42
  3
B4
350
5F43
  3
B5
350
5F44
  3
B6
350
5F45
  3
B7
350
5F46
  3
B8
350
5F47
  3
B9
350
5F48
  3
C0
350
5F49
  3
C1
350
5F4A
  3
C2
350
5F4B
  3
C3
350
5F4C
  3
C4
350
5F4D
  3
C5
350
5F4E
  3
C6
350
5F4F
  3
C7
350
5F50
  3
C8
350
5F51
  3
C9
350
5F52
  3
D0
350
5F53
  3
D1
350
5F54
  3
D2
350
5F55
  0
DICTIONARY
  5
5F65
102
{ACAD_REACTORS
330
5F06
102
}
330
5F06
100
AcDbDictionary
281
     1
  3
Standard
350
5F66
  0
DICTIONARY
  5
5F23
102
{ACAD_REACTORS
330
5F06
102
}
330
5F06
100
AcDbDictionary
281
     1
  3
2dWireframe
350
5F29
  3
3D Hidden
350
5F2B
  3
3dWireframe
350
5F2A
  3
Basic
350
5F28
  3
Brighten
350
5F2F
  3
ColorChange
350
5F33
  3
Conceptual
350
5F2C
  3
Dim
350
5F2E
  3
Facepattern
350
5F32
  3
Flat
350
5F24
  3
FlatWithEdges
350
5F25
  3
Gouraud
350
5F26
  3
GouraudWithEdges
350
5F27
  3
Linepattern
350
5F31
  3
Realistic
350
5F2D
  3
Thicken
350
5F30
  0
XRECORD
  5
6F70
102
{ACAD_REACTORS
330
5F06
102
}
330
5F06
100
AcDbXrecord
280
     1
 90
        1
330
5F66
  0
DICTIONARY
  5
6102
102
{ACAD_REACTORS
330
5F06
102
}
330
5F06
100
AcDbDictionary
281
     1
  3
CANNOSCALE
350
6105
  3
CMLEADERSTYLE
350
6104
  3
CTABLESTYLE
350
6103
  3
DIMASSOC
350
6108
  3
INDEXCTL
350
6107
  3
SORTENTS
350
6106
  0
XRECORD
  5
8EC6
102
{ACAD_REACTORS
330
5F06
102
}
330
5F06
100
AcDbXrecord
280
     1
  1
DWGPROPS COOKIE
  2

  3

  4

  6

  7

  8
Administrator
  9

300
=
301
=
302
=
303
=
304
=
305
=
306
=
307
=
308
=
309
=
 40
0.772434675925926
 41
2455434.724808658
 42
2458650.367029723
  1

 90
        0
  0
DICTIONARY
  5
60F2
102
{ACAD_REACTORS
330
5F06
102
}
330
5F06
100
AcDbDictionary
281
     1
  3
lxx_dimth
350
60F3
  0
DICTIONARY
  5
61B8
102
{ACAD_REACTORS
330
61B7
102
}
330
61B7
100
AcDbDictionary
281
     1
  0
XRECORD
  5
60F5
102
{ACAD_REACTORS
330
60F4
102
}
330
60F4
100
AcDbXrecord
280
     1
290
     1
  0
XRECORD
  5
60F7
102
{ACAD_REACTORS
330
60F6
102
}
330
60F6
100
AcDbXrecord
280
     1
290
     1
  0
XRECORD
  5
60F9
102
{ACAD_REACTORS
330
60F8
102
}
330
60F8
100
AcDbXrecord
280
     1
290
     1
  0
XRECORD
  5
60FB
102
{ACAD_REACTORS
330
60FA
102
}
330
60FA
100
AcDbXrecord
280
     1
290
     1
  0
XRECORD
  5
60FD
102
{ACAD_REACTORS
330
60FC
102
}
330
60FC
100
AcDbXrecord
280
     1
290
     1
  0
SORTENTSTABLE
  5
6550
102
{ACAD_REACTORS
330
654F
102
}
330
654F
100
AcDbSortentsTable
330
5F6E
  0
SORTENTSTABLE
  5
8C9C
102
{ACAD_REACTORS
330
8C9B
102
}
330
8C9B
100
AcDbSortentsTable
330
8C58
  0
XRECORD
  5
8EC8
102
{ACAD_REACTORS
330
8EC7
102
}
330
8EC7
100
AcDbXrecord
280
     1
 40
1.25
  0
XRECORD
  5
8EC9
102
{ACAD_REACTORS
330
8EC7
102
}
330
8EC7
100
AcDbXrecord
280
     1
 40
1.570796326794896
  0
XRECORD
  5
8ECB
102
{ACAD_REACTORS
330
8EC7
102
}
330
8EC7
100
AcDbXrecord
280
     1
340
5F5E
  0
XRECORD
  5
8ECC
102
{ACAD_REACTORS
330
8EC7
102
}
330
8EC7
100
AcDbXrecord
280
     1
340
5F5E
  0
XRECORD
  5
8ECA
102
{ACAD_REACTORS
330
8EC7
102
}
330
8EC7
100
AcDbXrecord
280
     1
340
5F5E
  0
LAYOUT
  5
5F71
102
{ACAD_XDICTIONARY
360
8ED0
102
}
102
{ACAD_REACTORS
330
5F63
102
}
330
5F63
100
AcDbPlotSettings
  1

  2
\\192.168.1.64\Canon LBP2900
  4
A4
  6

 40
5.873749732971191
 41
6.805061340332031
 42
5.873748779296875
 43
4.857757568359375
 44
209.9733276367186
 45
296.9259948730469
 46
0.0
 47
0.0
 48
0.0
 49
0.0
140
0.0
141
0.0
142
1.0
143
15.879357507287
 70
 11952
 72
     0
 73
     1
 74
     0
  7

 75
     0
147
0.0629748401055334
148
-27226.80690415248
149
-2266.514499453142
100
AcDbLayout
  1
Model
 70
     1
 71
     0
 10
0.0
 20
0.0
 11
12.0
 21
9.0
 12
0.0
 22
0.0
 32
0.0
 14
0.0
 24
0.0
 34
0.0
 15
0.0
 25
0.0
 35
0.0
146
0.0
 13
0.0
 23
0.0
 33
0.0
 16
1.0
 26
0.0
 36
0.0
 17
0.0
 27
1.0
 37
0.0
 76
     0
330
5F6E
331
5F73
1001
ACAD_PSEXT
1000
\\192.168.1.64\Canon LBP2900
1000
Canon LBP2900
1000
\\192.168.1.64
1000

1070
     0
  0
LAYOUT
  5
5F6D
102
{ACAD_XDICTIONARY
360
8ECE
102
}
102
{ACAD_REACTORS
330
5F63
102
}
330
5F63
100
AcDbPlotSettings
  1

  2
\\192.168.1.64\Canon LBP2900
  4

  6

 40
0.0
 41
0.0
 42
0.0
 43
0.0
 44
0.0
 45
0.0
 46
0.0
 47
0.0
 48
0.0
 49
0.0
140
0.0
141
0.0
142
1.0
143
1.0
 70
   688
 72
     0
 73
     0
 74
     5
  7

 75
    16
147
1.0
148
0.0
149
0.0
100
AcDbLayout
  1
布局1
 70
     1
 71
     1
 10
0.0
 20
0.0
 11
12.0
 21
9.0
 12
0.0
 22
0.0
 32
0.0
 14
1.000000000000000E+20
 24
1.000000000000000E+20
 34
1.000000000000000E+20
 15
-1.000000000000000E+20
 25
-1.000000000000000E+20
 35
-1.000000000000000E+20
146
0.0
 13
0.0
 23
0.0
 33
0.0
 16
1.0
 26
0.0
 36
0.0
 17
0.0
 27
1.0
 37
0.0
 76
     0
330
5F6A
  0
MATERIAL
  5
5F13
102
{ACAD_XDICTIONARY
360
5F14
102
}
102
{ACAD_REACTORS
330
5F0A
102
}
330
5F0A
100
AcDbMaterial
  1
ByBlock
 72
     0
 43
0.0208333333333333
 43
0.0
 43
0.0
 43
0.0
 43
0.0
 43
0.0208333333333333
 43
0.0
 43
0.0
 43
0.0
 43
0.0
 43
1.0
 43
0.0
 43
0.0
 43
0.0
 43
0.0
 43
1.0
 77
     0
 47
0.0208333333333333
 47
0.0
 47
0.0
 47
0.0
 47
0.0
 47
0.0208333333333333
 47
0.0
 47
0.0
 47
0.0
 47
0.0
 47
1.0
 47
0.0
 47
0.0
 47
0.0
 47
0.0
 47
1.0
171
     0
 49
0.0208333333333333
 49
0.0
 49
0.0
 49
0.0
 49
0.0
 49
0.0208333333333333
 49
0.0
 49
0.0
 49
0.0
 49
0.0
 49
1.0
 49
0.0
 49
0.0
 49
0.0
 49
0.0
 49
1.0
175
     0
142
0.0208333333333333
142
0.0
142
0.0
142
0.0
142
0.0
142
0.0208333333333333
142
0.0
142
0.0
142
0.0
142
0.0
142
1.0
142
0.0
142
0.0
142
0.0
142
0.0
142
1.0
179
     0
144
0.0208333333333333
144
0.0
144
0.0
144
0.0
144
0.0
144
0.0208333333333333
144
0.0
144
0.0
144
0.0
144
0.0
144
1.0
144
0.0
144
0.0
144
0.0
144
0.0
144
1.0
147
0.0208333333333333
147
0.0
147
0.0
147
0.0
147
0.0
147
0.0208333333333333
147
0.0
147
0.0
147
0.0
147
0.0
147
1.0
147
0.0
147
0.0
147
0.0
147
0.0
147
1.0
  0
MATERIAL
  5
5F0B
102
{ACAD_XDICTIONARY
360
5F0C
102
}
102
{ACAD_REACTORS
330
5F0A
102
}
330
5F0A
100
AcDbMaterial
  1
ByLayer
 72
     0
 43
0.0208333333333333
 43
0.0
 43
0.0
 43
0.0
 43
0.0
 43
0.0208333333333333
 43
0.0
 43
0.0
 43
0.0
 43
0.0
 43
1.0
 43
0.0
 43
0.0
 43
0.0
 43
0.0
 43
1.0
 77
     0
 47
0.0208333333333333
 47
0.0
 47
0.0
 47
0.0
 47
0.0
 47
0.0208333333333333
 47
0.0
 47
0.0
 47
0.0
 47
0.0
 47
1.0
 47
0.0
 47
0.0
 47
0.0
 47
0.0
 47
1.0
171
     0
 49
0.0208333333333333
 49
0.0
 49
0.0
 49
0.0
 49
0.0
 49
0.0208333333333333
 49
0.0
 49
0.0
 49
0.0
 49
0.0
 49
1.0
 49
0.0
 49
0.0
 49
0.0
 49
0.0
 49
1.0
175
     0
142
0.0208333333333333
142
0.0
142
0.0
142
0.0
142
0.0
142
0.0208333333333333
142
0.0
142
0.0
142
0.0
142
0.0
142
1.0
142
0.0
142
0.0
142
0.0
142
0.0
142
1.0
179
     0
144
0.0208333333333333
144
0.0
144
0.0
144
0.0
144
0.0
144
0.0208333333333333
144
0.0
144
0.0
144
0.0
144
0.0
144
1.0
144
0.0
144
0.0
144
0.0
144
0.0
144
1.0
147
0.0208333333333333
147
0.0
147
0.0
147
0.0
147
0.0
147
0.0208333333333333
147
0.0
147
0.0
147
0.0
147
0.0
147
1.0
147
0.0
147
0.0
147
0.0
147
0.0
147
1.0
  0
MATERIAL
  5
5F1B
102
{ACAD_XDICTIONARY
360
5F1C
102
}
102
{ACAD_REACTORS
330
5F0A
102
}
330
5F0A
100
AcDbMaterial
  1
Global
 72
     0
 43
0.0208333333333333
 43
0.0
 43
0.0
 43
0.0
 43
0.0
 43
0.0208333333333333
 43
0.0
 43
0.0
 43
0.0
 43
0.0
 43
1.0
 43
0.0
 43
0.0
 43
0.0
 43
0.0
 43
1.0
 77
     0
 47
0.0208333333333333
 47
0.0
 47
0.0
 47
0.0
 47
0.0
 47
0.0208333333333333
 47
0.0
 47
0.0
 47
0.0
 47
0.0
 47
1.0
 47
0.0
 47
0.0
 47
0.0
 47
0.0
 47
1.0
171
     0
 49
0.0208333333333333
 49
0.0
 49
0.0
 49
0.0
 49
0.0
 49
0.0208333333333333
 49
0.0
 49
0.0
 49
0.0
 49
0.0
 49
1.0
 49
0.0
 49
0.0
 49
0.0
 49
0.0
 49
1.0
175
     0
142
0.0208333333333333
142
0.0
142
0.0
142
0.0
142
0.0
142
0.0208333333333333
142
0.0
142
0.0
142
0.0
142
0.0
142
1.0
142
0.0
142
0.0
142
0.0
142
0.0
142
1.0
179
     0
144
0.0208333333333333
144
0.0
144
0.0
144
0.0
144
0.0
144
0.0208333333333333
144
0.0
144
0.0
144
0.0
144
0.0
144
1.0
144
0.0
144
0.0
144
0.0
144
0.0
144
1.0
147
0.0208333333333333
147
0.0
147
0.0
147
0.0
147
0.0
147
0.0208333333333333
147
0.0
147
0.0
147
0.0
147
0.0
147
1.0
147
0.0
147
0.0
147
0.0
147
0.0
147
1.0
  0
MLEADERSTYLE
  5
5F68
102
{ACAD_REACTORS
330
5F67
102
}
330
5F67
100
AcDbMLeaderStyle
170
     2
171
     1
172
     0
 90
        2
 40
0.0
 41
0.0
173
     1
 91
-1056964608
340
5F5C
 92
       -2
290
     1
 42
0.09
291
     1
 43
0.36
  3
Standard
 44
0.18
300

342
5F57
174
     1
178
     6
175
     1
176
     0
 93
-1056964608
 45
0.18
292
     0
297
     0
 46
0.18
 94
-1056964608
 47
1.0
 49
1.0
140
1.0
293
     1
141
0.0
294
     1
177
     0
142
1.0
295
     0
296
     0
143
0.125
1001
ACAD_MLEADERVER
1070
     2
  0
MLINESTYLE
  5
5F61
102
{ACAD_REACTORS
330
5F60
102
}
330
5F60
100
AcDbMlineStyle
  2
STANDARD
 70
     0
  3

 62
   256
 51
90.0
 52
90.0
 71
     2
 49
0.5
 62
   256
  6
BYLAYER
 49
-0.5
 62
   256
  6
BYLAYER
  0
ACDBPLACEHOLDER
  5
5F09
102
{ACAD_REACTORS
330
5F08
102
}
330
5F08
  0
SCALE
  5
5F35
102
{ACAD_REACTORS
330
5F34
102
}
330
5F34
100
AcDbScale
 70
     0
300
1:1
140
1.0
141
1.0
290
     1
  0
SCALE
  5
5F36
102
{ACAD_REACTORS
330
5F34
102
}
330
5F34
100
AcDbScale
 70
     0
300
1:2
140
1.0
141
2.0
290
     0
  0
SCALE
  5
5F37
102
{ACAD_REACTORS
330
5F34
102
}
330
5F34
100
AcDbScale
 70
     0
300
1:4
140
1.0
141
4.0
290
     0
  0
SCALE
  5
5F38
102
{ACAD_REACTORS
330
5F34
102
}
330
5F34
100
AcDbScale
 70
     0
300
1:5
140
1.0
141
5.0
290
     0
  0
SCALE
  5
5F39
102
{ACAD_REACTORS
330
5F34
102
}
330
5F34
100
AcDbScale
 70
     0
300
1:8
140
1.0
141
8.0
290
     0
  0
SCALE
  5
5F3A
102
{ACAD_REACTORS
330
5F34
102
}
330
5F34
100
AcDbScale
 70
     0
300
1:10
140
1.0
141
10.0
290
     0
  0
SCALE
  5
5F3B
102
{ACAD_REACTORS
330
5F34
102
}
330
5F34
100
AcDbScale
 70
     0
300
1:16
140
1.0
141
16.0
290
     0
  0
SCALE
  5
5F3C
102
{ACAD_REACTORS
330
5F34
102
}
330
5F34
100
AcDbScale
 70
     0
300
1:20
140
1.0
141
20.0
290
     0
  0
SCALE
  5
5F3D
102
{ACAD_REACTORS
330
5F34
102
}
330
5F34
100
AcDbScale
 70
     0
300
1:30
140
1.0
141
30.0
290
     0
  0
SCALE
  5
5F3E
102
{ACAD_REACTORS
330
5F34
102
}
330
5F34
100
AcDbScale
 70
     0
300
1:40
140
1.0
141
40.0
290
     0
  0
SCALE
  5
5F3F
102
{ACAD_REACTORS
330
5F34
102
}
330
5F34
100
AcDbScale
 70
     0
300
1:50
140
1.0
141
50.0
290
     0
  0
SCALE
  5
5F40
102
{ACAD_REACTORS
330
5F34
102
}
330
5F34
100
AcDbScale
 70
     0
300
1:100
140
1.0
141
100.0
290
     0
  0
SCALE
  5
5F41
102
{ACAD_REACTORS
330
5F34
102
}
330
5F34
100
AcDbScale
 70
     0
300
2:1
140
2.0
141
1.0
290
     0
  0
SCALE
  5
5F42
102
{ACAD_REACTORS
330
5F34
102
}
330
5F34
100
AcDbScale
 70
     0
300
4:1
140
4.0
141
1.0
290
     0
  0
SCALE
  5
5F43
102
{ACAD_REACTORS
330
5F34
102
}
330
5F34
100
AcDbScale
 70
     0
300
8:1
140
8.0
141
1.0
290
     0
  0
SCALE
  5
5F44
102
{ACAD_REACTORS
330
5F34
102
}
330
5F34
100
AcDbScale
 70
     0
300
10:1
140
10.0
141
1.0
290
     0
  0
SCALE
  5
5F45
102
{ACAD_REACTORS
330
5F34
102
}
330
5F34
100
AcDbScale
 70
     0
300
100:1
140
100.0
141
1.0
290
     0
  0
SCALE
  5
5F46
102
{ACAD_REACTORS
330
5F34
102
}
330
5F34
100
AcDbScale
 70
     0
300
1/128" = 1'-0"
140
0.0078125
141
12.0
290
     0
  0
SCALE
  5
5F47
102
{ACAD_REACTORS
330
5F34
102
}
330
5F34
100
AcDbScale
 70
     0
300
1/64" = 1'-0"
140
0.015625
141
12.0
290
     0
  0
SCALE
  5
5F48
102
{ACAD_REACTORS
330
5F34
102
}
330
5F34
100
AcDbScale
 70
     0
300
1/32" = 1'-0"
140
0.03125
141
12.0
290
     0
  0
SCALE
  5
5F49
102
{ACAD_REACTORS
330
5F34
102
}
330
5F34
100
AcDbScale
 70
     0
300
1/16" = 1'-0"
140
0.0625
141
12.0
290
     0
  0
SCALE
  5
5F4A
102
{ACAD_REACTORS
330
5F34
102
}
330
5F34
100
AcDbScale
 70
     0
300
3/32" = 1'-0"
140
0.09375
141
12.0
290
     0
  0
SCALE
  5
5F4B
102
{ACAD_REACTORS
330
5F34
102
}
330
5F34
100
AcDbScale
 70
     0
300
1/8" = 1'-0"
140
0.125
141
12.0
290
     0
  0
SCALE
  5
5F4C
102
{ACAD_REACTORS
330
5F34
102
}
330
5F34
100
AcDbScale
 70
     0
300
3/16" = 1'-0"
140
0.1875
141
12.0
290
     0
  0
SCALE
  5
5F4D
102
{ACAD_REACTORS
330
5F34
102
}
330
5F34
100
AcDbScale
 70
     0
300
1/4" = 1'-0"
140
0.25
141
12.0
290
     0
  0
SCALE
  5
5F4E
102
{ACAD_REACTORS
330
5F34
102
}
330
5F34
100
AcDbScale
 70
     0
300
3/8" = 1'-0"
140
0.375
141
12.0
290
     0
  0
SCALE
  5
5F4F
102
{ACAD_REACTORS
330
5F34
102
}
330
5F34
100
AcDbScale
 70
     0
300
1/2" = 1'-0"
140
0.5
141
12.0
290
     0
  0
SCALE
  5
5F50
102
{ACAD_REACTORS
330
5F34
102
}
330
5F34
100
AcDbScale
 70
     0
300
3/4" = 1'-0"
140
0.75
141
12.0
290
     0
  0
SCALE
  5
5F51
102
{ACAD_REACTORS
330
5F34
102
}
330
5F34
100
AcDbScale
 70
     0
300
1" = 1'-0"
140
1.0
141
12.0
290
     0
  0
SCALE
  5
5F52
102
{ACAD_REACTORS
330
5F34
102
}
330
5F34
100
AcDbScale
 70
     0
300
1-1/2" = 1'-0"
140
1.5
141
12.0
290
     0
  0
SCALE
  5
5F53
102
{ACAD_REACTORS
330
5F34
102
}
330
5F34
100
AcDbScale
 70
     0
300
3" = 1'-0"
140
3.0
141
12.0
290
     0
  0
SCALE
  5
5F54
102
{ACAD_REACTORS
330
5F34
102
}
330
5F34
100
AcDbScale
 70
     0
300
6" = 1'-0"
140
6.0
141
12.0
290
     0
  0
SCALE
  5
5F55
102
{ACAD_REACTORS
330
5F34
102
}
330
5F34
100
AcDbScale
 70
     0
300
1'-0" = 1'-0"
140
12.0
141
12.0
290
     0
  0
TABLESTYLE
  5
5F66
102
{ACAD_XDICTIONARY
360
6F6E
102
}
102
{ACAD_REACTORS
330
5F65
102
}
330
5F65
100
AcDbTableStyle
  3
Standard
 70
     0
 71
     0
 40
0.06
 41
0.06
280
     0
281
     0
  7
STANDARD
140
0.18
170
     2
 62
     0
 63
     7
283
     0
274
    -2
284
     1
 64
     0
275
    -2
285
     1
 65
     0
276
    -2
286
     1
 66
     0
277
    -2
287
     1
 67
     0
278
    -2
288
     1
 68
     0
279
    -2
289
     1
 69
     0
  7
STANDARD
140
0.25
170
     5
 62
     0
 63
     7
283
     0
274
    -2
284
     1
 64
     0
275
    -2
285
     1
 65
     0
276
    -2
286
     1
 66
     0
277
    -2
287
     1
 67
     0
278
    -2
288
     1
 68
     0
279
    -2
289
     1
 69
     0
  7
STANDARD
140
0.18
170
     5
 62
     0
 63
     7
283
     0
274
    -2
284
     1
 64
     0
275
    -2
285
     1
 65
     0
276
    -2
286
     1
 66
     0
277
    -2
287
     1
 67
     0
278
    -2
288
     1
 68
     0
279
    -2
289
     1
 69
     0
  0
VISUALSTYLE
  5
5F29
102
{ACAD_REACTORS
330
5F23
102
}
330
5F23
100
AcDbVisualStyle
  2
2dWireframe
 70
     4
 71
     0
 72
     2
 73
     0
 90
        0
 40
-0.6
 41
-30.0
 62
     5
 63
     7
 74
     1
 91
        4
 64
     7
 65
   257
 75
     1
175
     1
 42
1.0
 92
        0
 66
   257
 43
1.0
 76
     1
 77
     6
 78
     2
 67
     7
 79
     5
170
     0
171
     0
290
     0
174
     0
 93
        1
 44
0.0
173
     0
291
     0
 45
0.0
1001
ACAD
1000
AcDbSavedByObjectVersion
1070
     0
1000
AcDbSavedByObjectVersion
1070
     0
1000
AcDbSavedByObjectVersion
1070
     0
1000
AcDbSavedByObjectVersion
1070
     0
1000
AcDbSavedByObjectVersion
1070
     0
  0
VISUALSTYLE
  5
5F2B
102
{ACAD_REACTORS
330
5F23
102
}
330
5F23
100
AcDbVisualStyle
  2
3D Hidden
 70
     6
 71
     1
 72
     2
 73
     2
 90
        0
 40
-0.6
 41
-30.0
 62
     5
 63
     7
 74
     2
 91
        2
 64
     7
 65
   257
 75
     2
175
     1
 42
40.0
 92
        0
 66
   257
 43
1.0
 76
     1
 77
     6
 78
     2
 67
     7
 79
     3
170
     0
171
     0
290
     0
174
     0
 93
        1
 44
0.0
173
     0
291
     0
 45
0.0
1001
ACAD
1000
AcDbSavedByObjectVersion
1070
     0
1000
AcDbSavedByObjectVersion
1070
     0
1000
AcDbSavedByObjectVersion
1070
     0
1000
AcDbSavedByObjectVersion
1070
     0
1000
AcDbSavedByObjectVersion
1070
     0
  0
VISUALSTYLE
  5
5F2A
102
{ACAD_REACTORS
330
5F23
102
}
330
5F23
100
AcDbVisualStyle
  2
3dWireframe
 70
     5
 71
     0
 72
     2
 73
     0
 90
        0
 40
-0.6
 41
-30.0
 62
     5
 63
     7
 74
     1
 91
        4
 64
     7
 65
   257
 75
     1
175
     1
 42
1.0
 92
        0
 66
   257
 43
1.0
 76
     1
 77
     6
 78
     2
 67
     7
 79
     5
170
     0
171
     0
290
     0
174
     0
 93
        1
 44
0.0
173
     0
291
     0
 45
0.0
1001
ACAD
1000
AcDbSavedByObjectVersion
1070
     0
1000
AcDbSavedByObjectVersion
1070
     0
1000
AcDbSavedByObjectVersion
1070
     0
1000
AcDbSavedByObjectVersion
1070
     0
1000
AcDbSavedByObjectVersion
1070
     0
  0
VISUALSTYLE
  5
5F28
102
{ACAD_REACTORS
330
5F23
102
}
330
5F23
100
AcDbVisualStyle
  2
Basic
 70
     7
 71
     1
 72
     0
 73
     1
 90
        0
 40
-0.6
 41
-30.0
 62
     5
 63
     7
 74
     0
 91
        4
 64
     7
 65
   257
 75
     1
175
     1
 42
1.0
 92
        8
 66
     7
 43
1.0
 76
     1
 77
     6
 78
     2
 67
     7
 79
     5
170
     0
171
     0
290
     0
174
     0
 93
        1
 44
0.0
173
     0
291
     1
 45
0.0
1001
ACAD
1000
AcDbSavedByObjectVersion
1070
     0
1000
AcDbSavedByObjectVersion
1070
     0
1000
AcDbSavedByObjectVersion
1070
     0
1000
AcDbSavedByObjectVersion
1070
     0
1000
AcDbSavedByObjectVersion
1070
     0
  0
VISUALSTYLE
  5
5F2F
102
{ACAD_REACTORS
330
5F23
102
}
330
5F23
100
AcDbVisualStyle
  2
Brighten
 70
    12
 71
     2
 72
     2
 73
     0
 90
        0
 40
-0.6
 41
-30.0
 62
     5
 63
     7
 74
     1
 91
        4
 64
     7
 65
   257
 75
     1
175
     1
 42
1.0
 92
        8
 66
     7
 43
1.0
 76
     1
 77
     6
 78
     2
 67
     7
 79
     5
170
     0
171
     0
290
     0
174
     0
 93
        1
 44
50.0
173
     0
291
     1
 45
0.0
1001
ACAD
1000
AcDbSavedByObjectVersion
1070
     0
1000
AcDbSavedByObjectVersion
1070
     0
1000
AcDbSavedByObjectVersion
1070
     0
1000
AcDbSavedByObjectVersion
1070
     0
1000
AcDbSavedByObjectVersion
1070
     0
  0
VISUALSTYLE
  5
5F33
102
{ACAD_REACTORS
330
5F23
102
}
330
5F23
100
AcDbVisualStyle
  2
ColorChange
 70
    16
 71
     2
 72
     2
 73
     3
 90
        0
 40
-0.6
 41
-30.0
 62
     5
 63
     8
 74
     1
 91
        4
 64
     7
 65
   257
 75
     1
175
     1
 42
1.0
 92
        8
 66
     8
 43
1.0
 76
     1
 77
     6
 78
     2
 67
     7
 79
     5
170
     0
171
     0
290
     0
174
     0
 93
        1
 44
0.0
173
     0
291
     1
 45
0.0
1001
ACAD
1000
AcDbSavedByObjectVersion
1070
     0
1000
AcDbSavedByObjectVersion
1070
     0
1000
AcDbSavedByObjectVersion
1070
     0
1000
AcDbSavedByObjectVersion
1070
     0
1000
AcDbSavedByObjectVersion
1070
     0
  0
VISUALSTYLE
  5
5F2C
102
{ACAD_REACTORS
330
5F23
102
}
330
5F23
100
AcDbVisualStyle
  2
Conceptual
 70
     9
 71
     3
 72
     2
 73
     0
 90
        0
 40
-0.6
 41
-30.0
 62
     5
 63
     7
 74
     2
 91
        2
 64
     7
 65
   257
 75
     1
175
     1
 42
40.0
 92
        8
 66
     7
 43
1.0
 76
     1
 77
     6
 78
     2
 67
     7
 79
     3
170
     0
171
     0
290
     0
174
     0
 93
        1
 44
0.0
173
     0
291
     0
 45
0.0
1001
ACAD
1000
AcDbSavedByObjectVersion
1070
     0
1000
AcDbSavedByObjectVersion
1070
     0
1000
AcDbSavedByObjectVersion
1070
     0
1000
AcDbSavedByObjectVersion
1070
     0
1000
AcDbSavedByObjectVersion
1070
     0
  0
VISUALSTYLE
  5
5F2E
102
{ACAD_REACTORS
330
5F23
102
}
330
5F23
100
AcDbVisualStyle
  2
Dim
 70
    11
 71
     2
 72
     2
 73
     0
 90
        0
 40
-0.6
 41
-30.0
 62
     5
 63
     7
 74
     1
 91
        4
 64
     7
 65
   257
 75
     1
175
     1
 42
1.0
 92
        8
 66
     7
 43
1.0
 76
     1
 77
     6
 78
     2
 67
     7
 79
     5
170
     0
171
     0
290
     0
174
     0
 93
        1
 44
-50.0
173
     0
291
     1
 45
0.0
1001
ACAD
1000
AcDbSavedByObjectVersion
1070
     0
1000
AcDbSavedByObjectVersion
1070
     0
1000
AcDbSavedByObjectVersion
1070
     0
1000
AcDbSavedByObjectVersion
1070
     0
1000
AcDbSavedByObjectVersion
1070
     0
  0
VISUALSTYLE
  5
5F32
102
{ACAD_REACTORS
330
5F23
102
}
330
5F23
100
AcDbVisualStyle
  2
Facepattern
 70
    15
 71
     2
 72
     2
 73
     0
 90
        0
 40
-0.6
 41
-30.0
 62
     5
 63
     7
 74
     1
 91
        4
 64
     7
 65
   257
 75
     1
175
     1
 42
1.0
 92
        8
 66
     7
 43
1.0
 76
     1
 77
     6
 78
     2
 67
     7
 79
     5
170
     0
171
     0
290
     0
174
     0
 93
        1
 44
0.0
173
     0
291
     1
 45
0.0
1001
ACAD
1000
AcDbSavedByObjectVersion
1070
     0
1000
AcDbSavedByObjectVersion
1070
     0
1000
AcDbSavedByObjectVersion
1070
     0
1000
AcDbSavedByObjectVersion
1070
     0
1000
AcDbSavedByObjectVersion
1070
     0
  0
VISUALSTYLE
  5
5F24
102
{ACAD_REACTORS
330
5F23
102
}
330
5F23
100
AcDbVisualStyle
  2
Flat
 70
     0
 71
     2
 72
     1
 73
     1
 90
        2
 40
-0.6
 41
30.0
 62
     5
 63
     7
 74
     0
 91
        4
 64
     7
 65
   257
 75
     1
175
     1
 42
1.0
 92
        8
 66
     7
 43
1.0
 76
     1
 77
     6
 78
     2
 67
     7
 79
     5
170
     0
171
     0
290
     0
174
     0
 93
       13
 44
0.0
173
     0
291
     1
 45
0.0
1001
ACAD
1000
AcDbSavedByObjectVersion
1070
     0
1000
AcDbSavedByObjectVersion
1070
     0
1000
AcDbSavedByObjectVersion
1070
     0
1000
AcDbSavedByObjectVersion
1070
     0
1000
AcDbSavedByObjectVersion
1070
     0
  0
VISUALSTYLE
  5
5F25
102
{ACAD_REACTORS
330
5F23
102
}
330
5F23
100
AcDbVisualStyle
  2
FlatWithEdges
 70
     1
 71
     2
 72
     1
 73
     1
 90
        2
 40
-0.6
 41
30.0
 62
     5
 63
     7
 74
     1
 91
        4
 64
     7
 65
   257
 75
     1
175
     1
 42
1.0
 92
        0
 66
   257
 43
1.0
 76
     1
 77
     6
 78
     2
 67
     7
 79
     5
170
     0
171
     0
290
     0
174
     0
 93
       13
 44
0.0
173
     0
291
     1
 45
0.0
1001
ACAD
1000
AcDbSavedByObjectVersion
1070
     0
1000
AcDbSavedByObjectVersion
1070
     0
1000
AcDbSavedByObjectVersion
1070
     0
1000
AcDbSavedByObjectVersion
1070
     0
1000
AcDbSavedByObjectVersion
1070
     0
  0
VISUALSTYLE
  5
5F26
102
{ACAD_REACTORS
330
5F23
102
}
330
5F23
100
AcDbVisualStyle
  2
Gouraud
 70
     2
 71
     2
 72
     2
 73
     1
 90
        2
 40
-0.6
 41
30.0
 62
     5
 63
     7
 74
     0
 91
        4
 64
     7
 65
   257
 75
     1
175
     1
 42
1.0
 92
        0
 66
     7
 43
1.0
 76
     1
 77
     6
 78
     2
 67
     7
 79
     5
170
     0
171
     0
290
     0
174
     0
 93
       13
 44
0.0
173
     0
291
     1
 45
0.0
1001
ACAD
1000
AcDbSavedByObjectVersion
1070
     0
1000
AcDbSavedByObjectVersion
1070
     0
1000
AcDbSavedByObjectVersion
1070
     0
1000
AcDbSavedByObjectVersion
1070
     0
1000
AcDbSavedByObjectVersion
1070
     0
  0
VISUALSTYLE
  5
5F27
102
{ACAD_REACTORS
330
5F23
102
}
330
5F23
100
AcDbVisualStyle
  2
GouraudWithEdges
 70
     3
 71
     2
 72
     2
 73
     1
 90
        2
 40
-0.6
 41
30.0
 62
     5
 63
     7
 74
     1
 91
        4
 64
     7
 65
   257
 75
     1
175
     1
 42
1.0
 92
        0
 66
   257
 43
1.0
 76
     1
 77
     6
 78
     2
 67
     7
 79
     5
170
     0
171
     0
290
     0
174
     0
 93
       13
 44
0.0
173
     0
291
     1
 45
0.0
1001
ACAD
1000
AcDbSavedByObjectVersion
1070
     0
1000
AcDbSavedByObjectVersion
1070
     0
1000
AcDbSavedByObjectVersion
1070
     0
1000
AcDbSavedByObjectVersion
1070
     0
1000
AcDbSavedByObjectVersion
1070
     0
  0
VISUALSTYLE
  5
5F31
102
{ACAD_REACTORS
330
5F23
102
}
330
5F23
100
AcDbVisualStyle
  2
Linepattern
 70
    14
 71
     2
 72
     2
 73
     0
 90
        0
 40
-0.6
 41
-30.0
 62
     5
 63
     7
 74
     1
 91
        4
 64
     7
 65
   257
 75
     7
175
     7
 42
1.0
 92
        8
 66
     7
 43
1.0
 76
     1
 77
     6
 78
     2
 67
     7
 79
     5
170
     0
171
     0
290
     0
174
     0
 93
        1
 44
0.0
173
     0
291
     1
 45
0.0
1001
ACAD
1000
AcDbSavedByObjectVersion
1070
     0
1000
AcDbSavedByObjectVersion
1070
     0
1000
AcDbSavedByObjectVersion
1070
     0
1000
AcDbSavedByObjectVersion
1070
     0
1000
AcDbSavedByObjectVersion
1070
     0
  0
VISUALSTYLE
  5
5F2D
102
{ACAD_REACTORS
330
5F23
102
}
330
5F23
100
AcDbVisualStyle
  2
Realistic
 70
     8
 71
     2
 72
     2
 73
     0
 90
        0
 40
-0.6
 41
-30.0
 62
     5
 63
     7
 74
     1
 91
        0
 64
     7
 65
   257
 75
     1
175
     1
 42
1.0
 92
        8
 66
     8
 43
1.0
 76
     1
 77
     6
 78
     2
 67
     7
 79
     5
170
     0
171
     0
290
     0
174
     0
 93
       13
 44
0.0
173
     0
291
     0
 45
0.0
1001
ACAD
1000
AcDbSavedByObjectVersion
1070
     0
1000
AcDbSavedByObjectVersion
1070
     0
1000
AcDbSavedByObjectVersion
1070
     0
1000
AcDbSavedByObjectVersion
1070
     0
1000
AcDbSavedByObjectVersion
1070
     0
  0
VISUALSTYLE
  5
5F30
102
{ACAD_REACTORS
330
5F23
102
}
330
5F23
100
AcDbVisualStyle
  2
Thicken
 70
    13
 71
     2
 72
     2
 73
     0
 90
        0
 40
-0.6
 41
-30.0
 62
     5
 63
     7
 74
     1
 91
        4
 64
     7
 65
   257
 75
     1
175
     1
 42
1.0
 92
       12
 66
     7
 43
1.0
 76
     1
 77
     6
 78
     2
 67
     7
 79
     5
170
     0
171
     0
290
     0
174
     0
 93
        1
 44
0.0
173
     0
291
     1
 45
0.0
1001
ACAD
1000
AcDbSavedByObjectVersion
1070
     0
1000
AcDbSavedByObjectVersion
1070
     0
1000
AcDbSavedByObjectVersion
1070
     0
1000
AcDbSavedByObjectVersion
1070
     0
1000
AcDbSavedByObjectVersion
1070
     0
  0
DICTIONARYVAR
  5
6105
102
{ACAD_REACTORS
330
6102
102
}
330
6102
100
DictionaryVariables
280
     0
  1
1:1
  0
DICTIONARYVAR
  5
6104
102
{ACAD_REACTORS
330
6102
102
}
330
6102
100
DictionaryVariables
280
     0
  1
STANDARD
  0
DICTIONARYVAR
  5
6103
102
{ACAD_REACTORS
330
6102
102
}
330
6102
100
DictionaryVariables
280
     0
  1
STANDARD
  0
DICTIONARYVAR
  5
6108
102
{ACAD_REACTORS
330
6102
102
}
330
6102
100
DictionaryVariables
280
     0
  1
1
  0
DICTIONARYVAR
  5
6107
102
{ACAD_REACTORS
330
6102
102
}
330
6102
100
DictionaryVariables
280
     0
  1
0
  0
DICTIONARYVAR
  5
6106
102
{ACAD_REACTORS
330
6102
102
}
330
6102
100
DictionaryVariables
280
     0
  1
127
  0
VLO-VL
  5
60F3
102
{ACAD_REACTORS
330
60F2
102
}
330
60F2
100
vlo_VL
 90
   -64512
 91
       12
 92
        1
 40
2.5
300
(&VLO-R . 0)
  0
DICTIONARY
  5
8ED0
330
5F71
100
AcDbDictionary
280
     1
281
     1
  3
ACAD_XREC_ROUNDTRIP
360
8ED1
  0
DICTIONARY
  5
8ECE
330
5F6D
100
AcDbDictionary
280
     1
281
     1
  3
ACAD_XREC_ROUNDTRIP
360
8ECF
  0
DICTIONARY
  5
5F14
330
5F13
100
AcDbDictionary
280
     1
281
     1
  3
ACAD_XREC_ROUNDTRIP
360
6F73
  3
BUMPTILE
360
5F16
  3
DIFFUSETILE
360
5F15
  3
OPACITYTILE
360
5F19
  3
REFLECTIONTILE
360
5F18
  3
REFRACTIONTILE
360
5F1A
  3
SPECULARTILE
360
5F17
  0
DICTIONARY
  5
5F0C
330
5F0B
100
AcDbDictionary
280
     1
281
     1
  3
ACAD_XREC_ROUNDTRIP
360
6F72
  3
BUMPTILE
360
5F0E
  3
DIFFUSETILE
360
5F0D
  3
OPACITYTILE
360
5F11
  3
REFLECTIONTILE
360
5F10
  3
REFRACTIONTILE
360
5F12
  3
SPECULARTILE
360
5F0F
  0
DICTIONARY
  5
5F1C
330
5F1B
100
AcDbDictionary
280
     1
281
     1
  3
ACAD_XREC_ROUNDTRIP
360
6F74
  3
BUMPTILE
360
5F1E
  3
DIFFUSETILE
360
5F1D
  3
OPACITYTILE
360
5F21
  3
REFLECTIONTILE
360
5F20
  3
REFRACTIONTILE
360
5F22
  3
SPECULARTILE
360
5F1F
  0
DICTIONARY
  5
6F6E
330
5F66
100
AcDbDictionary
280
     1
281
     1
  3
ACAD_ROUNDTRIP_2008_TABLESTYLE_CELLSTYLEMAP
360
8EC5
  3
ACAD_XREC_ROUNDTRIP
360
8ECD
  0
XRECORD
  5
8ED1
102
{ACAD_REACTORS
330
8ED0
102
}
330
8ED0
100
AcDbXrecord
280
     1
102
SHADEPLOT
 70
     0
102
SHADEPLOTRESLEVEL
 70
     2
102
SHADEPLOTCUSTOMDPI
 70
   300
  0
XRECORD
  5
8ECF
102
{ACAD_REACTORS
330
8ECE
102
}
330
8ECE
100
AcDbXrecord
280
     1
102
SHADEPLOT
 70
     0
102
SHADEPLOTRESLEVEL
 70
     2
102
SHADEPLOTCUSTOMDPI
 70
   300
  0
XRECORD
  5
6F73
102
{ACAD_REACTORS
330
5F14
102
}
330
5F14
100
AcDbXrecord
280
     1
102
MATERIAL
148
0.0
149
0.0
149
0.0
 93
        0
 94
      127
282
     0
 72
     0
 77
     0
171
     0
175
     0
179
     0
273
     0
  0
XRECORD
  5
5F16
102
{ACAD_REACTORS
330
5F14
102
}
330
5F14
100
AcDbXrecord
280
     1
270
     1
271
     1
  0
XRECORD
  5
5F15
102
{ACAD_REACTORS
330
5F14
102
}
330
5F14
100
AcDbXrecord
280
     1
270
     1
271
     1
  0
XRECORD
  5
5F19
102
{ACAD_REACTORS
330
5F14
102
}
330
5F14
100
AcDbXrecord
280
     1
270
     1
271
     1
  0
XRECORD
  5
5F18
102
{ACAD_REACTORS
330
5F14
102
}
330
5F14
100
AcDbXrecord
280
     1
270
     1
271
     1
  0
XRECORD
  5
5F1A
102
{ACAD_REACTORS
330
5F14
102
}
330
5F14
100
AcDbXrecord
280
     1
270
     1
271
     1
  0
XRECORD
  5
5F17
102
{ACAD_REACTORS
330
5F14
102
}
330
5F14
100
AcDbXrecord
280
     1
270
     1
271
     1
  0
XRECORD
  5
6F72
102
{ACAD_REACTORS
330
5F0C
102
}
330
5F0C
100
AcDbXrecord
280
     1
102
MATERIAL
148
0.0
149
0.0
149
0.0
 93
        0
 94
      127
282
     0
 72
     0
 77
     0
171
     0
175
     0
179
     0
273
     0
  0
XRECORD
  5
5F0E
102
{ACAD_REACTORS
330
5F0C
102
}
330
5F0C
100
AcDbXrecord
280
     1
270
     1
271
     1
  0
XRECORD
  5
5F0D
102
{ACAD_REACTORS
330
5F0C
102
}
330
5F0C
100
AcDbXrecord
280
     1
270
     1
271
     1
  0
XRECORD
  5
5F11
102
{ACAD_REACTORS
330
5F0C
102
}
330
5F0C
100
AcDbXrecord
280
     1
270
     1
271
     1
  0
XRECORD
  5
5F10
102
{ACAD_REACTORS
330
5F0C
102
}
330
5F0C
100
AcDbXrecord
280
     1
270
     1
271
     1
  0
XRECORD
  5
5F12
102
{ACAD_REACTORS
330
5F0C
102
}
330
5F0C
100
AcDbXrecord
280
     1
270
     1
271
     1
  0
XRECORD
  5
5F0F
102
{ACAD_REACTORS
330
5F0C
102
}
330
5F0C
100
AcDbXrecord
280
     1
270
     1
271
     1
  0
XRECORD
  5
6F74
102
{ACAD_REACTORS
330
5F1C
102
}
330
5F1C
100
AcDbXrecord
280
     1
102
MATERIAL
148
0.0
149
0.0
149
0.0
 93
        0
 94
      127
282
     0
 72
     0
 77
     0
171
     0
175
     0
179
     0
273
     0
  0
XRECORD
  5
5F1E
102
{ACAD_REACTORS
330
5F1C
102
}
330
5F1C
100
AcDbXrecord
280
     1
270
     1
271
     1
  0
XRECORD
  5
5F1D
102
{ACAD_REACTORS
330
5F1C
102
}
330
5F1C
100
AcDbXrecord
280
     1
270
     1
271
     1
  0
XRECORD
  5
5F21
102
{ACAD_REACTORS
330
5F1C
102
}
330
5F1C
100
AcDbXrecord
280
     1
270
     1
271
     1
  0
XRECORD
  5
5F20
102
{ACAD_REACTORS
330
5F1C
102
}
330
5F1C
100
AcDbXrecord
280
     1
270
     1
271
     1
  0
XRECORD
  5
5F22
102
{ACAD_REACTORS
330
5F1C
102
}
330
5F1C
100
AcDbXrecord
280
     1
270
     1
271
     1
  0
XRECORD
  5
5F1F
102
{ACAD_REACTORS
330
5F1C
102
}
330
5F1C
100
AcDbXrecord
280
     1
270
     1
271
     1
  0
CELLSTYLEMAP
  5
8EC5
102
{ACAD_REACTORS
330
6F6E
102
}
330
6F6E
100
AcDbCellStyleMap
 90
        3
300
CELLSTYLE
  1
TABLEFORMAT_BEGIN
 90
        5
170
     1
 91
        0
 92
    32768
 62
   257
 93
        1
300
CONTENTFORMAT
  1
CONTENTFORMAT_BEGIN
 90
        0
 91
        0
 92
      512
 93
        0
300

 40
0.0
140
1.0
 94
        5
 62
     0
340
5F57
144
0.25
309
CONTENTFORMAT_END
171
     1
301
MARGIN
  1
CELLMARGIN_BEGIN
 40
0.06
 40
0.06
 40
0.06
 40
0.06
 40
0.18
 40
0.18
309
CELLMARGIN_END
 94
        6
 95
        1
302
GRIDFORMAT
  1
GRIDFORMAT_BEGIN
 90
        0
 91
        1
 62
     0
 92
       -2
340
0
 93
        0
 40
0.045
309
GRIDFORMAT_END
 95
        2
302
GRIDFORMAT
  1
GRIDFORMAT_BEGIN
 90
        0
 91
        1
 62
     0
 92
       -2
340
0
 93
        0
 40
0.045
309
GRIDFORMAT_END
 95
        4
302
GRIDFORMAT
  1
GRIDFORMAT_BEGIN
 90
        0
 91
        1
 62
     0
 92
       -2
340
0
 93
        0
 40
0.045
309
GRIDFORMAT_END
 95
        8
302
GRIDFORMAT
  1
GRIDFORMAT_BEGIN
 90
        0
 91
        1
 62
     0
 92
       -2
340
0
 93
        0
 40
0.045
309
GRIDFORMAT_END
 95
       16
302
GRIDFORMAT
  1
GRIDFORMAT_BEGIN
 90
        0
 91
        1
 62
     0
 92
       -2
340
0
 93
        0
 40
0.045
309
GRIDFORMAT_END
 95
       32
302
GRIDFORMAT
  1
GRIDFORMAT_BEGIN
 90
        0
 91
        1
 62
     0
 92
       -2
340
0
 93
        0
 40
0.045
309
GRIDFORMAT_END
309
TABLEFORMAT_END
  1
CELLSTYLE_BEGIN
 90
        1
 91
        1
300
_TITLE
309
CELLSTYLE_END
300
CELLSTYLE
  1
TABLEFORMAT_BEGIN
 90
        5
170
     1
 91
        0
 92
        0
 62
   257
 93
        1
300
CONTENTFORMAT
  1
CONTENTFORMAT_BEGIN
 90
        0
 91
        0
 92
      512
 93
        0
300

 40
0.0
140
1.0
 94
        5
 62
     0
340
5F57
144
0.18
309
CONTENTFORMAT_END
171
     1
301
MARGIN
  1
CELLMARGIN_BEGIN
 40
0.06
 40
0.06
 40
0.06
 40
0.06
 40
0.18
 40
0.18
309
CELLMARGIN_END
 94
        6
 95
        1
302
GRIDFORMAT
  1
GRIDFORMAT_BEGIN
 90
        0
 91
        1
 62
     0
 92
       -2
340
0
 93
        0
 40
0.045
309
GRIDFORMAT_END
 95
        2
302
GRIDFORMAT
  1
GRIDFORMAT_BEGIN
 90
        0
 91
        1
 62
     0
 92
       -2
340
0
 93
        0
 40
0.045
309
GRIDFORMAT_END
 95
        4
302
GRIDFORMAT
  1
GRIDFORMAT_BEGIN
 90
        0
 91
        1
 62
     0
 92
       -2
340
0
 93
        0
 40
0.045
309
GRIDFORMAT_END
 95
        8
302
GRIDFORMAT
  1
GRIDFORMAT_BEGIN
 90
        0
 91
        1
 62
     0
 92
       -2
340
0
 93
        0
 40
0.045
309
GRIDFORMAT_END
 95
       16
302
GRIDFORMAT
  1
GRIDFORMAT_BEGIN
 90
        0
 91
        1
 62
     0
 92
       -2
340
0
 93
        0
 40
0.045
309
GRIDFORMAT_END
 95
       32
302
GRIDFORMAT
  1
GRIDFORMAT_BEGIN
 90
        0
 91
        1
 62
     0
 92
       -2
340
0
 93
        0
 40
0.045
309
GRIDFORMAT_END
309
TABLEFORMAT_END
  1
CELLSTYLE_BEGIN
 90
        2
 91
        1
300
_HEADER
309
CELLSTYLE_END
300
CELLSTYLE
  1
TABLEFORMAT_BEGIN
 90
        5
170
     1
 91
        0
 92
        0
 62
   257
 93
        1
300
CONTENTFORMAT
  1
CONTENTFORMAT_BEGIN
 90
        0
 91
        0
 92
      512
 93
        0
300

 40
0.0
140
1.0
 94
        2
 62
     0
340
5F57
144
0.18
309
CONTENTFORMAT_END
171
     1
301
MARGIN
  1
CELLMARGIN_BEGIN
 40
0.06
 40
0.06
 40
0.06
 40
0.06
 40
0.18
 40
0.18
309
CELLMARGIN_END
 94
        6
 95
        1
302
GRIDFORMAT
  1
GRIDFORMAT_BEGIN
 90
        0
 91
        1
 62
     0
 92
       -2
340
0
 93
        0
 40
0.045
309
GRIDFORMAT_END
 95
        2
302
GRIDFORMAT
  1
GRIDFORMAT_BEGIN
 90
        0
 91
        1
 62
     0
 92
       -2
340
0
 93
        0
 40
0.045
309
GRIDFORMAT_END
 95
        4
302
GRIDFORMAT
  1
GRIDFORMAT_BEGIN
 90
        0
 91
        1
 62
     0
 92
       -2
340
0
 93
        0
 40
0.045
309
GRIDFORMAT_END
 95
        8
302
GRIDFORMAT
  1
GRIDFORMAT_BEGIN
 90
        0
 91
        1
 62
     0
 92
       -2
340
0
 93
        0
 40
0.045
309
GRIDFORMAT_END
 95
       16
302
GRIDFORMAT
  1
GRIDFORMAT_BEGIN
 90
        0
 91
        1
 62
     0
 92
       -2
340
0
 93
        0
 40
0.045
309
GRIDFORMAT_END
 95
       32
302
GRIDFORMAT
  1
GRIDFORMAT_BEGIN
 90
        0
 91
        1
 62
     0
 92
       -2
340
0
 93
        0
 40
0.045
309
GRIDFORMAT_END
309
TABLEFORMAT_END
  1
CELLSTYLE_BEGIN
 90
        3
 91
        2
300
_DATA
309
CELLSTYLE_END
  0
XRECORD
  5
8ECD
102
{ACAD_REACTORS
330
6F6E
102
}
330
6F6E
100
AcDbXrecord
280
     1
102
ACAD_ROUNDTRIP_PRE2007_TABLESTYLE
 90
      512
 91
        0
  1

 92
      512
 93
        0
  2

 94
      512
 95
        0
  3

  0
ENDSEC
  0
EOF
